<?xml version="1.0" standalone="no"?>
<!DOCTYPE svg PUBLIC "-//W3C//DTD SVG 1.1//EN" "http://www.w3.org/Graphics/SVG/1.1/DTD/svg11.dtd" >
<svg xmlns="http://www.w3.org/2000/svg">
<metadata>
Created by FontPrep 20130207 at Wed Jan 13 07:20:28 2016
 By Matthew Higley
Copyright A~A^(c) 2013 by Mattox Shuler. All rights reserved.
</metadata>
<defs>
<font id="bd20dd7817c15453d8ce3cbc1c0815a9" horiz-adv-x='1024' >
  <font-face 
    font-family="Industry-Light"
    font-weight="300"
    font-stretch="normal"
    units-per-em="2048"
    panose-1="0 0 0 0 0 0 0 0 0 0"
    ascent="1624"
    descent="-424"
    x-height="1106"
    cap-height="1475"
    bbox="-305 -545 1909 1954"
    underline-thickness="102"
    underline-position="-100"
    unicode-range="U+0020-FB02"
  />
<missing-glyph horiz-adv-x="1480" 
 />
    <glyph glyph-name=".notdef" horiz-adv-x="1480" 
 />
    <glyph glyph-name=".null" horiz-adv-x="0" 
 />
    <glyph glyph-name="nonmarkingreturn" horiz-adv-x="681" 
 />
    <glyph glyph-name="space" unicode=" " horiz-adv-x="540" 
 />
    <glyph glyph-name="exclam" unicode="!" horiz-adv-x="620" 
d="M373 0h-125v158h125v-158zM332 375h-43l-41 1100h125z" />
    <glyph glyph-name="quotedbl" unicode="&#x22;" horiz-adv-x="724" 
d="M559 1475l-35 -449h-53l-35 449h123zM287 1475l-35 -449h-53l-35 449h123z" />
    <glyph glyph-name="numbersign" unicode="#" horiz-adv-x="1531" 
d="M1047 963h-447l-113 -426h447zM1286 537v-76h-282l-123 -461h-90l122 461h-446l-123 -461h-90l123 461h-275v76h295l113 426h-266v75h284l117 437h92l-116 -437h444l117 437h92l-117 -437h270v-75h-290l-113 -426h262z" />
    <glyph glyph-name="dollar" unicode="$" horiz-adv-x="1286" 
d="M1022 287v168q0 53 -9 88t-38 57t-47 30q-18 7 -76 21l-158 39v-612h133q96 0 146 55q49 56 49 154zM270 1047q0 -141 107 -175q20 -6 67 -18l156 -41v582l-131 -2q-96 -1 -147 -55t-52 -154v-137zM1118 287q0 -143 -76 -219t-217 -76h-131v-174h-96v174h-133
q-143 0 -220 77t-77 218v131h100v-131q0 -97 49 -153t146 -56h137v635l-133 35q-90 24 -133 40q-164 63 -164 256v142q0 141 78 219t219 78h129v174h96v-174h111q141 0 219 -78t78 -219v-109h-101v109q0 98 -49 153t-145 56h-113v-604l133 -33q158 -40 226 -98t67 -199v-174
z" />
    <glyph glyph-name="percent" unicode="%" horiz-adv-x="1310" 
d="M1102 123v301q0 45 -37 45h-168q-19 0 -31 -12t-12 -31v-305q0 -21 12 -33t31 -12h168q37 0 37 47zM889 561h180q53 0 92 -39t39 -92v-311q0 -53 -38 -91t-93 -38h-182q-55 0 -93 38t-38 91v311q0 51 40 91t93 40zM453 1044v302q0 45 -37 45h-168q-18 -1 -30 -13t-13 -30
v-306q0 -20 12 -32t31 -13h168q37 0 37 47zM1102 1475l-817 -1475h-84l813 1475h88zM240 1483h180q53 0 92 -39t39 -92v-312q0 -53 -39 -92t-92 -39h-182q-53 0 -93 39q-39 39 -39 92v312q0 51 40 91t94 40z" />
    <glyph glyph-name="ampersand" unicode="&#x26;" horiz-adv-x="1347" 
d="M252 541v-250q0 -101 52 -155t147 -54h348q96 0 145 55t49 154v426l-536 -2q-113 0 -159 -43t-46 -131zM1092 291q0 -143 -76 -219t-217 -76h-348q-143 0 -221 77t-76 218v250q0 84 49 145t106 76q-55 29 -96 85t-41 136v205q0 141 78 219t219 78h313q141 0 219 -78
t78 -219v-123h-98v123q0 100 -52 154t-147 55h-313q-96 -1 -147 -55t-52 -154v-205q0 -102 39 -141t154 -39h807v-88l-178 2v-426z" />
    <glyph glyph-name="quotesingle" unicode="'" horiz-adv-x="452" 
d="M287 1475l-35 -449h-53l-35 449h123z" />
    <glyph glyph-name="parenleft" unicode="(" horiz-adv-x="675" 
d="M303 1311v-1229q0 -94 51 -152t148 -57h28v-88h-28q-141 0 -219 78t-78 217v1229q0 141 78 219t219 78h28v-88l-28 2q-90 6 -144 -52t-55 -157z" />
    <glyph glyph-name="parenright" unicode=")" horiz-adv-x="675" 
d="M174 1518h-29v88h29q141 0 219 -78t78 -219v-1229q0 -139 -78 -217t-219 -78h-29v88h29q96 0 148 54t51 153v1229q1 101 -51 155t-148 54z" />
    <glyph glyph-name="asterisk" unicode="*" horiz-adv-x="811" 
d="M641 887l-74 -53l-161 253l-164 -256l-72 56l192 233l-292 80l28 86l279 -112l-19 301h93l-19 -301l281 110l26 -88l-290 -76z" />
    <glyph glyph-name="plus" unicode="+" horiz-adv-x="1040" 
d="M479 373v344h-338v82h338v344h80v-344h338v-82h-338v-344h-80z" />
    <glyph glyph-name="comma" unicode="," horiz-adv-x="440" 
d="M285 160v-127q0 -29 -62 -162l-53 -113h-51l102 242h-65v160h129z" />
    <glyph glyph-name="hyphen" unicode="-" horiz-adv-x="841" 
d="M702 725v-96h-563v96h563z" />
    <glyph glyph-name="period" unicode="." horiz-adv-x="440" 
d="M285 0h-129v160h129v-160z" />
    <glyph glyph-name="slash" unicode="/" horiz-adv-x="911" 
d="M860 1618l-725 -1759h-84l725 1759h84z" />
    <glyph glyph-name="zero" unicode="0" horiz-adv-x="1312" 
d="M272 1186v-897q0 -101 52 -155t147 -54h373q94 0 146 54t52 155v897q0 100 -52 154t-146 55h-373q-95 -1 -147 -55t-52 -154zM844 -6h-373q-143 0 -220 77t-77 218v897q0 141 78 219t219 78h373q141 0 219 -78t78 -219v-897q0 -141 -77 -218t-220 -77z" />
    <glyph glyph-name="one" unicode="1" horiz-adv-x="677" 
d="M350 0v1374l-241 -100v94l247 107h93v-1475h-99z" />
    <glyph glyph-name="two" unicode="2" horiz-adv-x="1224" 
d="M174 1063v125q0 145 76 221t221 76h313q146 0 222 -76t75 -221v-199q0 -102 -61 -158l-31 -26q-17 -17 -41 -29t-29 -15t-11 -5t-7 -4l-481 -250q-100 -53 -135 -86t-35 -97v-235h831v-86h-929v321q0 67 11 89l14 28q11 22 32 39l31 27q6 6 43 26l522 275q100 53 135 86
t35 96v199q0 98 -49 153t-146 56h-313q-97 1 -147 -57t-48 -152l2 -121h-100z" />
    <glyph glyph-name="three" unicode="3" horiz-adv-x="1245" 
d="M418 76h366q96 0 146 55q49 55 49 154v254q0 174 -201 174h-377v88h377q106 0 146 42t41 136v209q1 98 -49 153t-146 56h-334q-96 1 -145 -55t-49 -154v-98h-99v98q0 145 76 221t221 76h334q145 0 221 -76t76 -221v-207q0 -80 -41 -136t-96 -85q57 -14 106 -76t50 -145
v-252q0 -145 -75 -220t-222 -75h-367q-147 0 -222 75t-75 220v98h98l-4 -100q-2 -93 48 -151t147 -58z" />
    <glyph glyph-name="four" unicode="4" horiz-adv-x="1249" 
d="M846 481v897l-668 -897h668zM1165 393h-217v-393h-102v393h-785v80l746 1002h141v-994h217v-88z" />
    <glyph glyph-name="five" unicode="5" horiz-adv-x="1193" 
d="M788 952q135 0 209 -74t74 -208v-383q0 -145 -75 -220t-222 -75h-323q-147 0 -223 75t-74 220v108h98v-108q0 -97 49 -153t145 -56h324q96 0 145 55t50 154v383q0 197 -187 196h-170q-106 0 -217 -65l-133 -80l-98 29v725h889v-89l-781 -2v-596l133 97q94 68 217 67h170z
" />
    <glyph glyph-name="six" unicode="6" horiz-adv-x="1253" 
d="M465 78h323q96 0 146 55q49 55 49 154v329q0 98 -49 154t-146 55h-170q-111 0 -217 -65l-133 -80l2 -393q0 -97 49 -153t146 -56zM467 1399q-96 1 -145 -55t-50 -154v-438l134 96q90 66 215 65h170q145 1 221 -75t75 -222v-329q-1 -145 -75 -220t-221 -75h-324
q-147 0 -222 75t-75 220v901q0 145 76 221t221 76h301q145 0 221 -76t76 -221v-109h-98l-4 111q-8 207 -195 209h-301z" />
    <glyph glyph-name="seven" unicode="7" 
d="M72 1386v89h948v-56l-660 -1419h-102l647 1386h-833z" />
    <glyph glyph-name="eight" unicode="8" horiz-adv-x="1294" 
d="M260 530v-245q0 -97 49 -153t146 -56h385q96 0 145 55t49 154v245q0 88 -46 134t-159 47l-364 -4q-115 0 -160 -45t-45 -132zM819 1395h-352q-96 1 -145 -55t-50 -154v-215q0 -94 37 -134t148 -40h372q111 0 148 40t37 134v215q0 98 -50 154t-145 55zM1133 287
q0 -145 -75 -220t-222 -75h-385q-147 0 -223 75t-74 220v245q0 84 49 146t106 76q-137 70 -137 221v213q0 145 76 221t221 76h352q145 0 222 -77t75 -220l-4 -213q-4 -154 -137 -221q57 -14 106 -76t50 -146v-245z" />
    <glyph glyph-name="nine" unicode="9" horiz-adv-x="1251" 
d="M467 1397q-96 1 -145 -55t-50 -154v-301q0 -97 50 -153t145 -56h168q109 0 217 65l135 80l-2 365q0 98 -49 153t-145 56h-324zM1083 287q0 -295 -297 -295h-301q-147 0 -222 75t-75 220v108h99l6 -110q6 -105 52 -157t142 -52h301q96 0 146 55q49 55 49 154v469l-135 -97
q-94 -68 -217 -67h-168q-145 0 -221 76t-76 221v301q0 145 76 221t221 76h323q146 0 222 -76t75 -221v-901z" />
    <glyph glyph-name="colon" unicode=":" horiz-adv-x="440" 
d="M285 0h-129v160h129v-160zM285 946h-129v160h129v-160z" />
    <glyph glyph-name="semicolon" unicode=";" horiz-adv-x="440" 
d="M285 946h-129v160h129v-160zM285 160v-127q0 -29 -62 -162l-53 -113h-51l102 242h-65v160h129z" />
    <glyph glyph-name="less" unicode="&#x3c;" horiz-adv-x="1040" 
d="M135 686v115l748 360v-90l-693 -328l693 -325v-90z" />
    <glyph glyph-name="equal" unicode="=" horiz-adv-x="1040" 
d="M897 651v-92h-756v92h756zM897 973v-92h-756v92h756z" />
    <glyph glyph-name="greater" unicode="&#x3e;" horiz-adv-x="1040" 
d="M850 743l-692 328v90l747 -360v-115l-747 -358v90z" />
    <glyph glyph-name="question" unicode="?" horiz-adv-x="1136" 
d="M510 193v-197h-98v197h98zM1022 1180v-105q0 -100 -46 -159t-133 -102q-87 -42 -101 -47t-19 -7l-43 -19q-94 -41 -124 -65q-48 -39 -48 -117v-194h-98v194q0 66 32 141q10 23 50 48l53 34q10 8 78 37l86 37l45 21q108 49 142 89t34 115v105q0 100 -51 154t-148 55h-364
q-95 -1 -147 -55t-52 -154v-131h-98v131q0 141 79 220t218 77l358 -6q145 -4 221 -80t76 -217z" />
    <glyph glyph-name="at" unicode="@" horiz-adv-x="1863" 
d="M825 958q-225 0 -225 -225v-336q0 -109 58 -167t171 -58h48q139 0 221 61l121 91v487l-125 86q-90 61 -222 61h-47zM1657 1182v-774q0 -142 -78 -220t-219 -77h-103l-40 153l-119 -96q-82 -66 -221 -66h-48q-141 0 -219 78t-78 219v336q0 141 78 219t219 78h48
q141 0 221 -65l119 -97l40 154h29v-840h74q225 0 225 224v774q0 117 -57 177t-166 60h-866q-106 0 -164 -60t-60 -175v-1223q0 -111 58 -173t168 -62h1036v-60h-1036q-141 0 -219 78t-78 219v1223q0 141 78 219t219 78l862 -4q141 0 219 -78t78 -219z" />
    <glyph glyph-name="A" unicode="A" horiz-adv-x="1337" 
d="M965 551l-295 821l-297 -821h592zM995 463h-655l-168 -463h-100l542 1475h111l543 -1475h-107z" />
    <glyph glyph-name="B" unicode="B" horiz-adv-x="1345" 
d="M1083 297v235q0 88 -46 134t-158 47h-576v-623l582 -2q94 0 146 54t52 155zM1069 973v205q0 100 -51 154t-148 54h-565v-587l572 2q111 0 151 37t41 135zM209 1475h661q142 0 220 -78t77 -219v-203q0 -152 -137 -221q56 -14 106 -76t50 -146v-235q0 -141 -78 -219
t-219 -78h-680v1475z" />
    <glyph glyph-name="C" unicode="C" horiz-adv-x="1302" 
d="M860 -6h-389q-143 0 -220 77t-77 218v897q0 141 78 219t219 78h389q141 0 219 -78t78 -219v-127h-98v127q0 100 -52 154t-147 55h-389q-94 -1 -146 -55t-53 -154v-897q0 -101 52 -155t147 -54h389q94 0 146 54t53 155v127h98v-127q0 -141 -77 -218t-220 -77z" />
    <glyph glyph-name="D" unicode="D" horiz-adv-x="1363" 
d="M307 88h588q96 0 147 54t52 155v881q0 100 -52 154t-147 54h-588v-1298zM209 1475h686q141 0 219 -78t78 -219v-881q0 -141 -78 -219t-219 -78h-686v1475z" />
    <glyph glyph-name="E" unicode="E" horiz-adv-x="1214" 
d="M209 1475h889v-89h-791v-587h674v-88h-674v-623h791v-88h-889v1475z" />
    <glyph glyph-name="F" unicode="F" horiz-adv-x="1179" 
d="M209 0v1475h889v-89h-791v-606h674v-88h-674v-692h-98z" />
    <glyph glyph-name="G" unicode="G" horiz-adv-x="1337" 
d="M469 1395q-96 -1 -147 -55t-52 -154v-901q0 -101 52 -153t147 -52h403q96 0 146 55q49 55 49 154v356h-410v88h508v-444q1 -143 -75 -219t-218 -76h-403q-143 0 -220 77t-77 218v897q0 141 78 219t219 78h403q142 0 220 -78t77 -219v-115h-98l-4 115q-8 207 -195 209
h-403z" />
    <glyph glyph-name="H" unicode="H" horiz-adv-x="1421" 
d="M209 0v1475h98v-676h809v676h98v-1475h-98v711h-809v-711h-98z" />
    <glyph glyph-name="I" unicode="I" horiz-adv-x="514" 
d="M209 0v1475h98v-1475h-98z" />
    <glyph glyph-name="J" unicode="J" horiz-adv-x="1212" 
d="M1028 1475v-1186q0 -141 -77 -218t-220 -77h-332q-143 0 -220 77t-77 218v196h99v-196q0 -101 51 -155t147 -54h332q95 0 147 54t52 155v1186h98z" />
    <glyph glyph-name="K" unicode="K" horiz-adv-x="1368" 
d="M309 0h-100v1475h100v-940l809 940h131l-547 -619l586 -856h-112l-535 786l-332 -374v-412z" />
    <glyph glyph-name="L" unicode="L" horiz-adv-x="1136" 
d="M209 1475h98v-1387h740v-88h-838v1475z" />
    <glyph glyph-name="M" unicode="M" horiz-adv-x="1714" 
d="M1507 1475v-1475h-96v1350l-500 -1114h-106l-500 1114v-1350h-96v1475h133l512 -1139l520 1139h133z" />
    <glyph glyph-name="N" unicode="N" horiz-adv-x="1445" 
d="M1143 1475h96v-1475h-119l-815 1346v-1346h-96v1475h119l815 -1346v1346z" />
    <glyph glyph-name="O" unicode="O" horiz-adv-x="1355" 
d="M272 1186v-897q0 -101 52 -155t147 -54h416q96 0 147 54t51 155v897q0 100 -51 154t-147 55h-416q-95 -1 -147 -55t-52 -154zM887 -6h-416q-143 0 -220 77t-77 218v897q0 141 78 219t219 78h416q141 0 219 -78t78 -219v-897q0 -141 -77 -218t-220 -77z" />
    <glyph glyph-name="P" unicode="P" horiz-adv-x="1298" 
d="M307 684h574q94 0 146 54t52 155v309q0 184 -198 184h-574v-702zM209 1475h672q141 0 219 -78t78 -219v-285q0 -141 -78 -219t-219 -78h-574v-596h-98v1475z" />
    <glyph glyph-name="Q" unicode="Q" horiz-adv-x="1353" 
d="M1083 291v897q0 100 -52 154t-146 55h-414q-94 -1 -146 -55t-53 -154v-897q0 -101 52 -155t147 -54h336l-113 215h97l112 -215q88 6 134 62t46 147zM1182 1188v-897q0 -127 -62 -204t-174 -89l105 -199h-97l-102 195h-381q-143 0 -220 77t-77 218v897q0 141 78 219
t219 78l414 2q141 0 219 -78t78 -219z" />
    <glyph glyph-name="R" unicode="R" horiz-adv-x="1347" 
d="M307 723h572q96 0 147 54t51 155v246q0 100 -51 154t-147 54h-572v-663zM307 635v-635h-98v1475h670q141 0 219 -78t78 -219v-248q0 -295 -306 -295l351 -635h-111l-346 635h-457z" />
    <glyph glyph-name="S" unicode="S" horiz-adv-x="1286" 
d="M467 1393q-96 1 -145 -55t-50 -154v-140q0 -106 51 -144t117 -52l381 -96q106 -29 141 -42t77 -44q79 -58 79 -205v-172q0 -143 -76 -219t-217 -76h-360q-143 0 -220 77t-77 218v131h100v-131q0 -101 52 -155t147 -54h358q96 0 146 55q49 55 49 154v168q0 104 -37 139
q-39 35 -133 59l-381 95q-161 39 -229 95t-68 197v144q0 141 78 219t219 78h336q141 0 219 -78t78 -219v-109h-101l-2 107q-8 207 -198 209h-334z" />
    <glyph glyph-name="T" unicode="T" horiz-adv-x="1157" 
d="M1085 1386h-458v-1386h-99v1386h-458v89h1015v-89z" />
    <glyph glyph-name="U" unicode="U" horiz-adv-x="1357" 
d="M1174 1475v-1186q0 -141 -77 -218t-220 -77h-394q-143 0 -220 77t-77 218v1186h99v-1186q0 -101 52 -155t146 -54h394q94 0 146 54t52 155v1186h99z" />
    <glyph glyph-name="V" unicode="V" horiz-adv-x="1265" 
d="M1196 1475l-506 -1475h-115l-505 1475h100l463 -1373l471 1373h92z" />
    <glyph glyph-name="W" unicode="W" horiz-adv-x="1849" 
d="M1364 0h-111l-327 1317l-330 -1317h-111l-415 1475h102l367 -1340l335 1340h103l334 -1340l366 1340h103z" />
    <glyph glyph-name="X" unicode="X" horiz-adv-x="1245" 
d="M1069 0l-451 676l-448 -676h-102l499 750l-483 725h109l432 -646l428 646h106l-483 -723l502 -752h-109z" />
    <glyph glyph-name="Y" unicode="Y" horiz-adv-x="1234" 
d="M666 0h-99v561l-528 914h117l460 -820l461 820h117l-528 -914v-561z" />
    <glyph glyph-name="Z" unicode="Z" horiz-adv-x="1218" 
d="M164 1386v89h926v-70l-846 -1317h841v-88h-956v70l844 1316h-809z" />
    <glyph glyph-name="bracketleft" unicode="[" horiz-adv-x="704" 
d="M303 1518v-1645h256v-88h-354v1821h354v-88h-256z" />
    <glyph glyph-name="backslash" unicode="\" horiz-adv-x="911" 
d="M860 -141h-84l-725 1759h84z" />
    <glyph glyph-name="bracketright" unicode="]" horiz-adv-x="704" 
d="M145 1606h355v-1821h-355v88h256v1645h-256v88z" />
    <glyph glyph-name="asciicircum" unicode="^" horiz-adv-x="901" 
d="M389 1475h123l193 -377h-74l-180 354l-181 -354h-75z" />
    <glyph glyph-name="underscore" unicode="_" horiz-adv-x="1124" 
d="M1112 -88v-68h-1100v68h1100z" />
    <glyph glyph-name="grave" unicode="`" horiz-adv-x="1363" 
d="M844 1610h-70l-256 295h141z" />
    <glyph glyph-name="a" unicode="a" 
d="M205 371v-95q0 -92 53 -148t141 -56h109q111 0 221 65l133 80v358l-463 -2q-92 0 -143 -54t-51 -148zM430 1114h240q135 0 209 -74t73 -209v-829h-92v154l-133 -97q-86 -63 -221 -63h-109q-137 0 -212 75t-74 210v94q0 131 77 209q78 78 209 78h58q143 0 405 -35v204
q0 97 -51 151t-141 54h-236q-88 0 -140 -54t-52 -151v-4h-93v4q0 135 74 209t209 74z" />
    <glyph glyph-name="b" unicode="b" horiz-adv-x="1159" 
d="M926 279v548q0 95 -54 151t-141 56h-119q-106 0 -215 -65l-133 -80v-672l133 -80q109 -66 215 -65h119q87 0 141 56t54 151zM610 1114h119q135 0 211 -76t76 -211v-548q0 -135 -75 -210t-212 -75h-119q-129 0 -215 63l-133 97v-154h-92v1524h92v-572l133 97q90 65 215 65
z" />
    <glyph glyph-name="c" unicode="c" horiz-adv-x="1083" 
d="M684 -6h-256q-137 0 -212 75t-75 210v548q0 135 76 211t211 76h256q135 0 211 -76t76 -211v-45h-92v45q-1 95 -53 149t-142 54h-256q-92 0 -143 -54t-52 -149v-548q-1 -95 51 -149t144 -54h256q90 0 142 54t53 149v45h92v-45q0 -135 -75 -210t-212 -75z" />
    <glyph glyph-name="d" unicode="d" horiz-adv-x="1157" 
d="M430 1030q-90 0 -142 -56t-52 -149v-549q0 -92 52 -148t142 -56h119q106 0 215 65l133 80v672l-133 76q-113 66 -215 65h-119zM989 0h-92v154l-133 -97q-86 -63 -215 -63h-119q-137 0 -212 75t-75 210v548q0 135 76 211t211 76h119q125 0 215 -65l133 -97v572h92v-1524z
" />
    <glyph glyph-name="e" unicode="e" 
d="M684 1030h-260q-92 0 -143 -54t-52 -149v-200h650v200q-1 95 -53 149t-142 54zM426 76h258q94 0 146 56t53 147v65h90v-65q0 -135 -75 -210t-212 -75h-258q-137 0 -212 75t-75 210v548q0 135 76 211t211 76h258q135 0 211 -76t76 -211v-286h-740l-2 -262q1 -95 53 -149
t142 -54z" />
    <glyph glyph-name="f" unicode="f" horiz-adv-x="759" 
d="M352 1106h359v-78h-357v-1028h-90v1028h-201v78h203v131q0 135 76 211t211 76h158v-78l-156 -2q-92 0 -147 -58t-56 -149v-131z" />
    <glyph glyph-name="g" unicode="g" horiz-adv-x="1157" 
d="M430 1030q-84 0 -139 -58t-55 -147v-485q0 -92 52 -148t142 -57h119q96 0 215 68l135 78v604l-133 80q-111 66 -217 65h-119zM989 1106v-1215q0 -135 -76 -211t-211 -75h-247q-135 0 -211 76t-76 210v13h94v-13q0 -96 51 -150t142 -54h247q88 0 142 55q53 57 53 152v323
l-133 -96q-90 -66 -215 -66h-119q-135 0 -211 76t-76 211v485q0 135 76 211t211 76h119q125 0 215 -65l133 -97v154h92z" />
    <glyph glyph-name="h" unicode="h" horiz-adv-x="1144" 
d="M897 0v825q0 99 -51 153t-141 54h-93q-109 0 -217 -65l-133 -80v-887h-92v1524h92v-572l133 97q90 66 215 65h92q135 0 211 -76t76 -211v-827h-92z" />
    <glyph glyph-name="i" unicode="i" horiz-adv-x="460" 
d="M276 1106v-1106h-92v1106h92zM287 1372h-113v152h113v-152z" />
    <glyph glyph-name="j" unicode="j" horiz-adv-x="458" 
d="M272 1106v-1215q0 -135 -76 -211t-208 -75h-54v82h66q84 0 133 55t49 141v1223h90zM285 1372h-113v152h113v-152z" />
    <glyph glyph-name="k" unicode="k" horiz-adv-x="1026" 
d="M260 0h-92v1475h92v-1020l559 651h111l-355 -410l392 -696h-107l-340 633l-260 -299v-334z" />
    <glyph glyph-name="l" unicode="l" horiz-adv-x="458" 
d="M186 1524h86v-1524h-86v1524z" />
    <glyph glyph-name="m" unicode="m" horiz-adv-x="1783" 
d="M1294 1114h45q135 0 211 -76t76 -211v-827h-90v827q0 95 -53 151t-142 56h-47q-104 0 -217 -65l-137 -82q4 -49 4 -60v-827h-92v827q0 99 -51 153t-142 54h-47q-106 0 -217 -65l-133 -80v-889h-92v1106h92v-154l133 97q90 66 215 65h47q209 0 271 -172l149 107
q92 65 217 65z" />
    <glyph glyph-name="n" unicode="n" horiz-adv-x="1144" 
d="M897 0v827q0 99 -51 153t-141 54h-93q-106 0 -217 -65l-133 -80v-889h-92v1106h92v-154l133 97q90 66 215 65h92q135 0 211 -76t76 -211v-827h-92z" />
    <glyph glyph-name="o" unicode="o" horiz-adv-x="1124" 
d="M692 1032h-268q-88 0 -140 -54t-53 -151v-548q1 -93 53 -149t142 -56h268q88 0 142 55q53 58 53 150l-4 548q0 97 -51 151t-142 54zM428 1114h264q135 0 211 -76t76 -211v-548q0 -133 -73 -209t-210 -76h-268q-137 0 -212 75t-75 210v548q0 135 76 211t211 76z" />
    <glyph glyph-name="p" unicode="p" horiz-adv-x="1159" 
d="M926 279v548q0 95 -54 151t-141 56h-119q-106 0 -215 -65l-133 -80v-672l133 -80q109 -66 215 -65h119q87 0 141 56t54 151zM610 1114h119q135 0 211 -76t76 -211v-548q0 -135 -75 -210t-212 -75h-119q-129 0 -215 63l-133 97v-539h-92v1491h92v-154l133 97q90 65 215 65
z" />
    <glyph glyph-name="q" unicode="q" horiz-adv-x="1157" 
d="M233 276q-1 -92 53 -148t142 -56h119q106 0 215 65l133 80v672l-133 80q-115 69 -215 65l-119 -4q-92 -4 -143 -58t-52 -147v-549zM428 1114h119q125 0 215 -65l133 -97v154h92v-1491h-92v539l-133 -97q-86 -63 -215 -63h-119q-137 0 -212 75t-75 210v548q0 135 76 211
t211 76z" />
    <glyph glyph-name="r" unicode="r" horiz-adv-x="757" 
d="M696 1032h-86q-102 0 -215 -67l-133 -78v-887h-92v1106h92v-154l133 97q90 66 215 65h86v-82z" />
    <glyph glyph-name="s" unicode="s" horiz-adv-x="1054" 
d="M649 1030h-254q-172 0 -172 -176v-57q0 -72 34 -103t116 -43l327 -55q122 -23 178 -74t56 -164v-104q0 -123 -64 -191t-192 -67h-299q-260 0 -260 258v72h86v-72q0 -180 174 -180h299q168 0 168 180v104q0 72 -34 103t-116 43l-327 55q-123 23 -179 74q-55 51 -55 164v57
q0 260 260 260h258q125 0 191 -68t65 -192v-53h-86l-2 53q-6 176 -172 176z" />
    <glyph glyph-name="t" unicode="t" horiz-adv-x="827" 
d="M354 1028v-741q0 -95 52 -153t143 -58h190v-76h-190q-135 0 -211 76t-76 211v741h-201v78h203v369h88v-369h387v-78h-385z" />
    <glyph glyph-name="u" unicode="u" horiz-adv-x="1144" 
d="M248 1106v-830q0 -92 52 -148t142 -56h93q106 0 215 65l133 80v889h92v-1106h-92v154l-133 -97q-86 -63 -215 -63h-93q-137 0 -212 75t-74 210v827h92z" />
    <glyph glyph-name="v" unicode="v" horiz-adv-x="966" 
d="M924 1106l-375 -1106h-131l-373 1106h100l342 -1045l340 1045h97z" />
    <glyph glyph-name="w" unicode="w" horiz-adv-x="1488" 
d="M1102 0h-107l-250 967l-249 -967h-113l-338 1106h90l303 -1028l260 1028h93l260 -1028l309 1028h86z" />
    <glyph glyph-name="x" unicode="x" horiz-adv-x="1003" 
d="M856 0l-360 492l-351 -492h-102l403 561l-399 545h105l350 -479l340 479h104l-391 -551l406 -555h-105z" />
    <glyph glyph-name="y" unicode="y" horiz-adv-x="958" 
d="M915 1106l-505 -1491h-86l129 387l-408 1104h105l339 -997l332 997h94z" />
    <glyph glyph-name="z" unicode="z" horiz-adv-x="921" 
d="M121 1030v76h719v-49l-641 -981h626v-76h-737v47l639 983h-606z" />
    <glyph glyph-name="braceleft" unicode="{" horiz-adv-x="768" 
d="M393 485v-405q0 -98 51 -152t148 -55h29v-88h-29q-141 0 -219 78t-78 217v405q0 184 -174 185h-21v84h21q174 0 174 184v371q0 141 78 219t219 78h29v-88h-29q-96 0 -148 -54t-51 -155l-2 -369q0 -168 -158 -227q160 -78 160 -228z" />
    <glyph glyph-name="bar" unicode="|" horiz-adv-x="583" 
d="M258 1612h68v-2052h-68v2052z" />
    <glyph glyph-name="braceright" unicode="}" horiz-adv-x="768" 
d="M145 1516v88h29q141 0 219 -78t78 -219v-371q0 -184 174 -184h21v-84h-21q-174 0 -174 -185v-405q0 -139 -78 -217t-219 -78h-29v88h29q96 0 148 54t51 153v405q0 152 159 228q-157 59 -157 227l2 369q0 94 -53 151t-150 58h-29z" />
    <glyph glyph-name="asciitilde" unicode="~" horiz-adv-x="1040" 
d="M305 686l-41 -129h-96l51 162q29 92 125 63l387 -110l39 125h100l-53 -164q-29 -90 -123 -62z" />
    <glyph glyph-name="exclamdown" unicode="&#xa1;" horiz-adv-x="620" 
d="M289 731h43l41 -1098h-125zM248 1106h125v-158h-125v158z" />
    <glyph glyph-name="cent" unicode="&#xa2;" horiz-adv-x="1107" 
d="M250 981v-479q0 -100 51 -154t148 -55h65v895l-65 2q-91 2 -145 -53t-54 -156zM862 944v35q0 95 -55 153t-139 58h-74v-895h70q94 0 146 54t52 155v39h99v-39q0 -133 -82 -215t-215 -82h-72v-207h-78v207h-65q-133 0 -216 82q-82 82 -81 215v479q0 133 81 215
q82 82 216 82h65v195h78v-195h72q133 0 215 -82t82 -215v-39h-99z" />
    <glyph glyph-name="sterling" unicode="&#xa3;" horiz-adv-x="1273" 
d="M1133 88v-88h-1047v88h111q57 0 57 57v525h-168v88h168v428q0 141 78 219t219 78h276q141 0 219 -78t78 -219v-144h-98v144q0 100 -52 154t-147 55h-276q-95 -1 -147 -55t-52 -154v-428h492v-88h-492v-582h781z" />
    <glyph glyph-name="currency" unicode="&#xa4;" horiz-adv-x="1247" 
d="M522 389h199q94 0 146 54t53 155v307q0 97 -52 149t-147 52h-197q-197 0 -196 -201v-307q0 -98 49 -154t145 -55zM719 301h-197q-106 0 -178 47l-154 -153l-65 65l151 152q-49 74 -49 186v307q0 111 47 182l-149 150l65 66l150 -150q70 49 184 49h197q113 0 186 -49
l150 150l65 -66l-151 -152q47 -72 47 -178l-2 -309q0 -115 -49 -184l153 -154l-65 -65l-154 153q-72 -47 -182 -47z" />
    <glyph glyph-name="yen" unicode="&#xa5;" horiz-adv-x="1234" 
d="M1024 655v-88h-358v-147h358v-88h-358v-332h-99v332h-356v88h356v147h-356v88h313l-485 820h117l460 -797l461 797h117l-485 -820h315z" />
    <glyph glyph-name="brokenbar" unicode="&#xa6;" horiz-adv-x="583" 
d="M326 -440h-68v809h68v-809zM258 1612h68v-811h-68v811z" />
    <glyph glyph-name="section" unicode="&#xa7;" horiz-adv-x="1093" 
d="M866 680q0 125 -139 147l-397 64q-104 -23 -105 -168v-111q0 -57 39 -96t111 -51l375 -62q55 9 86 59t30 118v100zM670 1401h-256q-92 0 -129 -39t-37 -131v-109q0 -70 36 -104t109 -45l340 -53q101 -14 165 -78t65 -162v-100q0 -156 -103 -228q88 -63 88 -180v-102
q0 -258 -260 -258h-297q-260 0 -260 258v71h92v-71q0 -94 40 -134t128 -40h297q88 0 128 40t40 134v102q0 123 -143 147l-330 54q-100 13 -169 79t-69 158v111q0 156 103 221q-88 57 -88 172v109q0 260 260 260h256q260 0 260 -260v-37h-92l-8 41q0 92 -37 133t-129 41z" />
    <glyph glyph-name="dieresis" unicode="&#xa8;" horiz-adv-x="1310" 
d="M883 1618h-129v188h129v-188zM557 1618h-129v188h129v-188z" />
    <glyph glyph-name="copyright" unicode="&#xa9;" horiz-adv-x="1734" 
d="M1188 885h-94v78q0 65 -37 105t-101 40h-196q-62 0 -100 -40t-37 -105v-461q0 -63 36 -107q37 -43 101 -43h194q63 0 101 43q37 43 37 109v76h94v-78q0 -113 -60 -172t-170 -60h-196q-113 0 -172 60t-60 172v463q0 113 60 172t172 59l198 -2q111 0 170 -59t60 -172v-78z
M1231 1419h-739q-106 0 -164 -60t-60 -175v-897q0 -111 58 -173t168 -63h739q106 0 166 62q59 63 59 176l-4 893q0 117 -57 177t-166 60zM498 1483h735q141 0 219 -78t78 -219v-897q0 -143 -76 -219t-217 -76h-739q-143 0 -220 77t-77 218v897q0 141 78 219t219 78z" />
    <glyph glyph-name="ordfeminine" unicode="&#xaa;" horiz-adv-x="759" 
d="M657 614v-79h-534v79h534zM186 995v-49q0 -53 31 -86t80 -33h59q84 0 148 45l71 52v188l-278 2q-49 0 -80 -33t-31 -86zM655 1296v-538h-82v94l-84 -66q-53 -35 -133 -34h-65q-86 0 -135 49t-50 135v63q0 85 50 135t135 50h37q106 0 245 -25v129q0 47 -30 82
q-31 33 -76 33h-152q-51 0 -79 -34t-27 -81v-6h-84v12q0 86 49 136t135 49l164 2q84 0 133 -49t49 -136z" />
    <glyph glyph-name="guillemotleft" unicode="&#xab;" horiz-adv-x="765" 
d="M684 1145l-285 -426l285 -424h-98l-262 387v74l262 389h98zM426 1145l-285 -426l285 -424h-98l-262 387v74l262 389h98z" />
    <glyph glyph-name="registered" unicode="&#xae;" horiz-adv-x="851" 
d="M324 1116h165q39 0 39 43v88q0 41 -39 41h-165v-172zM578 1247v-88q0 -45 -27 -69t-68 -19l105 -182h-51l-107 182h-106v-182h-48v446h213q89 0 89 -88zM680 874v474q0 28 -18 56t-58 28h-348q-45 0 -63 -28t-19 -54v-478q0 -30 18 -56t64 -25h342q45 0 64 28
q18 28 18 55zM256 1483h350q49 0 86 -39t37 -92v-478q0 -53 -39 -92t-92 -39h-342q-53 0 -92 39t-39 92v478q0 53 39 92t92 39z" />
    <glyph glyph-name="macron" unicode="&#xaf;" horiz-adv-x="1210" 
d="M864 1718v-88h-510v88h510z" />
    <glyph glyph-name="degree" unicode="&#xb0;" horiz-adv-x="686" 
d="M231 1374v-229q0 -25 25 -25h174q25 0 25 25v229q0 25 -25 25h-174q-25 0 -25 -25zM451 1040h-215q-35 0 -60 25t-24 59v271q0 35 24 59t60 25h215q35 0 59 -25t25 -59v-271q-1 -36 -25 -60t-59 -24z" />
    <glyph glyph-name="plusminus" unicode="&#xb1;" horiz-adv-x="1040" 
d="M141 360h756v-81h-756v81zM479 459v346h-338v80h338v344h80v-344h338v-80h-338v-346h-80z" />
    <glyph glyph-name="twosuperior" unicode="&#xb2;" horiz-adv-x="659" 
d="M489 1548q0 66 -71 68h-174q-70 -1 -70 -64l6 -59h-94v68q0 67 42 105t116 38h188q74 0 116 -39t42 -104v-111q0 -37 -10 -51q-10 -15 -14 -20q-3 -5 -5 -9t-16 -10l-19 -10q-3 0 -9 -4l-14 -8q-7 -3 -20 -9l-24 -12q-16 -8 -29 -12l-192 -78q-46 -21 -58 -29t-12 -29
v-100h424v-88h-518v199q0 39 9 52q13 18 15 23t20 15q17 10 22 13t14 7q10 4 22 10l25 13q20 10 26 12l191 78q41 12 56 24t15 33v88z" />
    <glyph glyph-name="threesuperior" unicode="&#xb3;" horiz-adv-x="667" 
d="M428 1071q70 0 70 64v114q0 63 -84 64h-183v82h183q45 0 60 15t15 48v94q0 63 -69 64h-178q-72 0 -72 -64v-53h-94v62q0 67 42 105t115 38h193q74 0 116 -39t42 -104v-103q0 -68 -70 -106q34 -12 56 -41t22 -66v-119q0 -66 -42 -104t-116 -39h-209q-75 0 -117 39t-42 104
v62h94l2 -53q2 -63 69 -64h197z" />
    <glyph glyph-name="acute" unicode="&#xb4;" horiz-adv-x="1347" 
d="M578 1610h-60l184 295h125z" />
    <glyph glyph-name="paragraph" unicode="&#xb6;" horiz-adv-x="1380" 
d="M1174 0h-99v1386h-137v-1386h-98v616h-406q-141 0 -219 78t-78 219v265q0 141 78 219t219 78h740v-1475z" />
    <glyph glyph-name="periodcentered" unicode="&#xb7;" horiz-adv-x="462" 
d="M305 590h-145v168h145v-168z" />
    <glyph glyph-name="cedilla" unicode="&#xb8;" horiz-adv-x="1157" 
d="M659 -344q35 0 48 16q12 16 12 54v12q0 37 -12 53t-48 16h-245l98 193h88l-51 -111h110q152 0 152 -149v-12q0 -150 -152 -150h-210l-103 78h313z" />
    <glyph glyph-name="onesuperior" unicode="&#xb9;" horiz-adv-x="399" 
d="M186 985v617l-133 -50v84l150 62h78v-713h-95z" />
    <glyph glyph-name="ordmasculine" unicode="&#xba;" horiz-adv-x="768" 
d="M647 610v-80h-526v80h526zM580 942v344q0 53 -31 86t-76 33h-178q-51 0 -79 -34t-28 -85v-344q0 -51 28 -85t79 -34h178q45 0 76 33t31 86zM291 1479h186q86 0 135 -49t50 -136v-356q0 -86 -50 -135t-135 -49h-186q-86 0 -135 49t-50 135v356q0 86 50 136t135 49z" />
    <glyph glyph-name="guillemotright" unicode="&#xbb;" horiz-adv-x="765" 
d="M705 756v-74l-263 -387h-98l285 424l-285 426h98zM449 756v-74l-263 -387h-98l285 424l-285 426h98z" />
    <glyph glyph-name="onequarter" unicode="&#xbc;" horiz-adv-x="1234" 
d="M944 1475l-762 -1475h-90l762 1475h90zM186 760v616l-133 -49v84l150 62h78v-713h-95zM969 252v330l-291 -330h291zM1178 166h-115v-166h-94v166h-394l-8 74l398 473h98v-461h115v-86z" />
    <glyph glyph-name="onehalf" unicode="&#xbd;" horiz-adv-x="1296" 
d="M936 1475l-762 -1475h-90l762 1475h90zM178 760v616l-133 -49v84l150 62h77v-713h-94zM1124 561q0 66 -71 68h-174q-70 0 -70 -64l8 -59h-94v67q0 66 42 105t116 39h188q74 0 116 -39t42 -105v-110q-1 -37 -11 -51q-10 -15 -13 -20t-5 -9t-16 -10l-19 -11q-12 -6 -22 -10
t-23 -10l-24 -12q-16 -8 -29 -13l-193 -77q-47 -20 -58 -28t-11 -30v-100h424v-86h-518v197q0 39 9 52q13 18 15 23t20 15q17 10 20 12t14 7t24 11l25 13q20 10 26 12l191 78q41 12 56 24t15 33v88z" />
    <glyph glyph-name="threequarters" unicode="&#xbe;" horiz-adv-x="1503" 
d="M1214 1475l-761 -1475h-91l762 1475h90zM1239 252v330l-291 -330h291zM1448 166h-115v-166h-94v166h-393l-8 74l397 473h98v-461h115v-86zM231 846h197q70 0 70 63v115q0 63 -84 63h-183v82h183q45 -1 60 15t15 49v94q0 63 -69 64h-178q-72 0 -72 -64v-53h-94v61
q0 66 42 105t115 39h193q74 0 116 -39t42 -105v-102q0 -68 -70 -107q34 -12 56 -41t22 -65v-119q0 -67 -42 -105t-116 -38h-209q-75 0 -117 39t-42 104v62h94l2 -54q2 -63 69 -63z" />
    <glyph glyph-name="questiondown" unicode="&#xbf;" horiz-adv-x="1136" 
d="M113 20q0 145 118 226q57 39 179 92l43 18q135 60 158 111q15 33 16 74v194h98v-194q0 -69 -33 -140q-8 -20 -49 -45l-51 -32q-10 -8 -78 -37l-86 -37l-45 -21q-109 -49 -135 -82q-41 -47 -41 -122v-103q0 -100 52 -154t147 -55h364q94 1 146 55t53 154v129h98v-129
q0 -141 -76 -217t-221 -80l-360 -4q-138 -2 -218 77t-79 220v102zM621 907v199h98v-199h-98z" />
    <glyph glyph-name="Agrave" unicode="&#xc0;" horiz-adv-x="1337" 
d="M965 551l-295 821l-297 -821h592zM995 463h-655l-168 -463h-100l542 1475h111l543 -1475h-107zM657 1610l-256 295h142l184 -295h-70z" />
    <glyph glyph-name="Aacute" unicode="&#xc1;" horiz-adv-x="1337" 
d="M643 1610h-59l184 295h125zM965 551l-295 821l-297 -821h592zM995 463h-655l-168 -463h-100l542 1475h111l543 -1475h-107z" />
    <glyph glyph-name="Acircumflex" unicode="&#xc2;" horiz-adv-x="1337" 
d="M965 551l-295 821l-297 -821h592zM995 463h-655l-168 -463h-100l542 1475h111l543 -1475h-107zM453 1610h-56l215 239h115l217 -239h-55l-219 159z" />
    <glyph glyph-name="Atilde" unicode="&#xc3;" horiz-adv-x="1337" 
d="M963 553l-295 821l-297 -821h592zM993 465h-655l-168 -463h-100l542 1475h111l543 -1475h-107zM451 1610l-74 2l41 166q25 106 123 55l301 -156l45 158h71l-45 -168q-29 -104 -118 -55l-301 157z" />
    <glyph glyph-name="Adieresis" unicode="&#xc4;" horiz-adv-x="1337" 
d="M897 1618h-129v188h129v-188zM571 1618h-129v188h129v-188zM965 551l-295 821l-297 -821h592zM995 463h-655l-168 -463h-100l542 1475h111l543 -1475h-107z" />
    <glyph glyph-name="Aring" unicode="&#xc5;" horiz-adv-x="1337" 
d="M565 1819v-125q0 -25 25 -25h149q25 0 25 25v125q0 25 -25 24h-149q-25 1 -25 -24zM508 1671v170q0 29 18 47t47 19h187q29 -1 47 -19t18 -45v-170q0 -27 -18 -45t-45 -18l-191 -4q-27 0 -45 18t-18 47zM965 551l-295 821l-297 -821h592zM995 463h-655l-168 -463h-100
l542 1475h111l543 -1475h-107z" />
    <glyph glyph-name="AE" unicode="&#xc6;" horiz-adv-x="1964" 
d="M932 551v838h-92l-424 -838h516zM1030 1386v-585h723v-88h-723v-625h817v-88h-915v463h-561l-234 -463h-106l753 1475h1063v-89h-817z" />
    <glyph glyph-name="Ccedilla" unicode="&#xc7;" horiz-adv-x="1302" 
d="M1059 1059v123q0 100 -52 154t-147 55h-389q-94 -1 -146 -55t-53 -154v-897q0 -101 52 -155t147 -54h389q94 0 146 54t53 155v127h98v-127q0 -141 -77 -218t-220 -77h-137l-47 -105h110q152 0 152 -149v-12q0 -150 -152 -150h-211l-102 82h313q35 0 48 16q12 16 12 54v12
q0 37 -12 53t-48 16h-245l94 187h-164q-143 0 -220 77t-77 218v897q0 141 78 219t219 78h389q141 0 219 -78t78 -219v-127h-98z" />
    <glyph glyph-name="Egrave" unicode="&#xc8;" horiz-adv-x="1214" 
d="M1098 1475v-89h-791v-587h674v-88h-674v-623h791v-88h-889v1475h889zM705 1610h-70l-256 295h141z" />
    <glyph glyph-name="Eacute" unicode="&#xc9;" horiz-adv-x="1214" 
d="M621 1610h-60l184 295h125zM209 1475h889v-89h-791v-587h674v-88h-674v-623h791v-88h-889v1475z" />
    <glyph glyph-name="Ecircumflex" unicode="&#xca;" horiz-adv-x="1214" 
d="M1098 1475v-89h-791v-587h674v-88h-674v-623h791v-88h-889v1475h889zM647 1769l-217 -159h-55l215 239h115l217 -239h-56z" />
    <glyph glyph-name="Edieresis" unicode="&#xcb;" horiz-adv-x="1214" 
d="M874 1618h-129v188h129v-188zM549 1618h-129v188h129v-188zM209 1475h889v-89h-791v-587h674v-88h-674v-623h791v-88h-889v1475z" />
    <glyph glyph-name="Igrave" unicode="&#xcc;" horiz-adv-x="514" 
d="M209 1475h98v-1475h-98v1475zM315 1610h-69l-254 295h139z" />
    <glyph glyph-name="Iacute" unicode="&#xcd;" horiz-adv-x="514" 
d="M231 1610h-59l184 295h125zM209 0v1475h98v-1475h-98z" />
    <glyph glyph-name="Icircumflex" unicode="&#xce;" horiz-adv-x="514" 
d="M209 1475h98v-1475h-98v1475zM258 1769l-217 -159h-53l213 239h114l217 -239h-55z" />
    <glyph glyph-name="Idieresis" unicode="&#xcf;" horiz-adv-x="514" 
d="M209 0v1475h98v-1475h-98zM485 1618h-129v188h129v-188zM160 1618h-129v188h129v-188z" />
    <glyph glyph-name="Eth" unicode="&#xd0;" horiz-adv-x="1363" 
d="M1094 297v881q0 100 -52 154t-147 54h-588v-595h199v-89h-199v-614h588q95 0 147 54t52 155zM209 1475h686q141 0 219 -78t78 -219v-881q0 -141 -78 -219t-219 -78h-686v702h-189v89h189v684z" />
    <glyph glyph-name="Ntilde" unicode="&#xd1;" horiz-adv-x="1445" 
d="M563 1767l-45 -157h-72l41 166q25 106 123 55l301 -156l45 158h72l-45 -168q-29 -104 -119 -55zM1241 1473v-1473h-119l-815 1343v-1343h-96v1473h119l815 -1346v1346h96z" />
    <glyph glyph-name="Ograve" unicode="&#xd2;" horiz-adv-x="1355" 
d="M471 -6q-143 0 -220 77t-77 218v897q0 141 78 219t219 78h416q141 0 219 -78t78 -219v-897q0 -141 -77 -218t-220 -77h-416zM272 289q0 -101 52 -155t147 -54h416q96 0 147 54t51 155v897q0 100 -51 154t-147 55h-416q-94 -1 -146 -55t-53 -154v-897zM737 1610h-69
l-256 295h141z" />
    <glyph glyph-name="Oacute" unicode="&#xd3;" horiz-adv-x="1355" 
d="M653 1610h-59l184 295h125zM272 1186v-897q0 -101 52 -155t147 -54h416q96 0 147 54t51 155v897q0 100 -51 154t-147 55h-416q-95 -1 -147 -55t-52 -154zM887 -6h-416q-143 0 -220 77t-77 218v897q0 141 78 219t219 78h416q141 0 219 -78t78 -219v-897q0 -141 -77 -218
t-220 -77z" />
    <glyph glyph-name="Ocircumflex" unicode="&#xd4;" horiz-adv-x="1355" 
d="M471 -6q-143 0 -220 77t-77 218v897q0 141 78 219t219 78h416q141 0 219 -78t78 -219v-897q0 -141 -77 -218t-220 -77h-416zM272 289q0 -101 52 -155t147 -54h416q96 0 147 54t51 155v897q0 100 -51 154t-147 55h-416q-94 -1 -146 -55t-53 -154v-897zM680 1769l-217 -159
h-55l215 239h114l217 -239h-55z" />
    <glyph glyph-name="Otilde" unicode="&#xd5;" horiz-adv-x="1355" 
d="M506 1767l-45 -157h-72l41 166q25 106 123 55l301 -156l45 158h72l-45 -168q-29 -104 -119 -55zM473 -8q-143 0 -220 77t-77 218v897q0 141 78 219t219 78h416q141 0 219 -78t78 -219v-897q0 -141 -77 -218t-220 -77h-416zM274 287q0 -101 52 -155t147 -54h416
q94 0 146 54t52 155v897q0 100 -52 154t-146 55h-416q-96 -1 -147 -55t-52 -154v-897z" />
    <glyph glyph-name="Odieresis" unicode="&#xd6;" horiz-adv-x="1355" 
d="M907 1618h-129v188h129v-188zM582 1618h-129v188h129v-188zM272 1186v-897q0 -101 52 -155t147 -54h416q96 0 147 54t51 155v897q0 100 -51 154t-147 55h-416q-95 -1 -147 -55t-52 -154zM887 -6h-416q-143 0 -220 77t-77 218v897q0 141 78 219t219 78h416q141 0 219 -78
t78 -219v-897q0 -141 -77 -218t-220 -77z" />
    <glyph glyph-name="multiply" unicode="&#xd7;" horiz-adv-x="1040" 
d="M582 682l280 -281l-59 -57l-281 281l-280 -287l-60 59l281 287l-281 281l60 57l280 -281l281 287l59 -59z" />
    <glyph glyph-name="Oslash" unicode="&#xd8;" horiz-adv-x="1353" 
d="M471 80h414q94 0 146 54t52 155l-2 905q0 76 -34 129l-674 -1225q41 -18 98 -18zM272 1188v-899q0 -80 35 -133l672 1222q-39 18 -94 19h-414q-95 -1 -147 -55t-52 -154zM471 1483h414q141 0 219 -78t78 -219v-897q0 -141 -77 -218t-220 -77h-414q-143 0 -220 77t-77 218
v897q0 141 78 219t219 78z" />
    <glyph glyph-name="Ugrave" unicode="&#xd9;" horiz-adv-x="1357" 
d="M1174 289q0 -141 -77 -218t-220 -77h-394q-143 0 -220 77t-77 218v1186h99v-1186q0 -101 52 -155t146 -54h394q94 0 146 54t52 155v1186h99v-1186zM737 1610h-69l-256 295h141z" />
    <glyph glyph-name="Uacute" unicode="&#xda;" horiz-adv-x="1357" 
d="M653 1610h-59l184 295h125zM1174 1475v-1186q0 -141 -77 -218t-220 -77h-394q-143 0 -220 77t-77 218v1186h99v-1186q0 -101 52 -155t146 -54h394q94 0 146 54t52 155v1186h99z" />
    <glyph glyph-name="Ucircumflex" unicode="&#xdb;" horiz-adv-x="1357" 
d="M1174 289q0 -141 -77 -218t-220 -77h-394q-143 0 -220 77t-77 218v1186h99v-1186q0 -101 52 -155t146 -54h394q94 0 146 54t52 155v1186h99v-1186zM680 1769l-217 -159h-55l215 239h114l217 -239h-55z" />
    <glyph glyph-name="Udieresis" unicode="&#xdc;" horiz-adv-x="1357" 
d="M907 1618h-129v188h129v-188zM582 1618h-129v188h129v-188zM1174 1475v-1186q0 -141 -77 -218t-220 -77h-394q-143 0 -220 77t-77 218v1186h99v-1186q0 -101 52 -155t146 -54h394q94 0 146 54t52 155v1186h99z" />
    <glyph glyph-name="Yacute" unicode="&#xdd;" horiz-adv-x="1234" 
d="M590 1610h-60l185 295h125zM666 0h-99v561l-528 914h117l460 -820l461 820h117l-528 -914v-561z" />
    <glyph glyph-name="Thorn" unicode="&#xde;" horiz-adv-x="1298" 
d="M307 408h574q94 0 146 54t52 154v265q0 100 -52 154t-146 55h-574v-682zM307 1475v-297h574q141 0 219 -78t78 -219v-265q0 -141 -78 -219t-219 -78h-574v-319h-98v1475h98z" />
    <glyph glyph-name="germandbls" unicode="&#xdf;" horiz-adv-x="1142" 
d="M920 530q0 187 -201 187h-227v82h229q100 0 141 41t41 141v213q0 94 -52 150t-142 57h-265q-88 0 -140 -54t-52 -151v-1196h-92v1196q0 135 76 211t210 76h265q135 0 211 -77t75 -210l-4 -213q0 -76 -43 -137t-94 -88q56 -14 106 -78t50 -150v-247q0 -135 -75 -210
t-212 -75h-291v78h291q90 0 142 56t53 151v247z" />
    <glyph glyph-name="agrave" unicode="&#xe0;" 
d="M670 1114q135 0 209 -74t73 -209v-829h-92v154l-133 -97q-86 -63 -221 -63h-109q-137 0 -212 75t-74 210v94q0 131 77 209q78 78 209 78h58q143 0 405 -35v204q0 97 -51 151t-141 54h-236q-88 0 -140 -54t-52 -151v-4h-93v4q0 135 74 209t209 74h240zM205 371v-95
q0 -92 53 -148t141 -56h109q111 0 221 65l133 80v358l-463 -2q-92 0 -143 -54t-51 -148zM627 1251h-70l-256 295h141z" />
    <glyph glyph-name="aacute" unicode="&#xe1;" 
d="M543 1251h-60l185 295h125zM205 371v-95q0 -92 53 -148t141 -56h109q111 0 221 65l133 80v358l-463 -2q-92 0 -143 -54t-51 -148zM430 1114h240q135 0 209 -74t73 -209v-829h-92v154l-133 -97q-86 -63 -221 -63h-109q-137 0 -212 75t-74 210v94q0 131 77 209
q78 78 209 78h58q143 0 405 -35v204q0 97 -51 151t-141 54h-236q-88 0 -140 -54t-52 -151v-4h-93v4q0 135 74 209t209 74z" />
    <glyph glyph-name="acircumflex" unicode="&#xe2;" 
d="M670 1114q135 0 209 -74t73 -209v-829h-92v154l-133 -97q-86 -63 -221 -63h-109q-137 0 -212 75t-74 210v94q0 131 77 209q78 78 209 78h58q143 0 405 -35v204q0 97 -51 151t-141 54h-236q-88 0 -140 -54t-52 -151v-4h-93v4q0 135 74 209t209 74h240zM205 371v-95
q0 -92 53 -148t141 -56h109q111 0 221 65l133 80v358l-463 -2q-92 0 -143 -54t-51 -148zM569 1411l-217 -160h-55l215 240h115l217 -240h-56z" />
    <glyph glyph-name="atilde" unicode="&#xe3;" 
d="M391 1411l-45 -158h-72l41 166q25 106 123 56l301 -156l45 158h72l-45 -168q-29 -104 -119 -56zM672 1112q135 0 209 -74t73 -209v-829h-92v154l-133 -97q-86 -63 -221 -63h-109q-137 0 -212 75t-74 210v94q0 131 77 209q78 78 209 77h58q143 0 405 -34v204q0 97 -52 151
t-140 54h-236q-90 0 -141 -54t-51 -151v-4h-92v4q0 135 73 209q74 74 209 74h240zM207 369v-95q0 -92 52 -148t142 -56h109q111 0 221 65l133 80v358l-463 -2q-90 0 -142 -54t-52 -148z" />
    <glyph glyph-name="adieresis" unicode="&#xe4;" 
d="M797 1260h-129v188h129v-188zM471 1260h-129v188h129v-188zM205 371v-95q0 -92 53 -148t141 -56h109q111 0 221 65l133 80v358l-463 -2q-92 0 -143 -54t-51 -148zM430 1114h240q135 0 209 -74t73 -209v-829h-92v154l-133 -97q-86 -63 -221 -63h-109q-137 0 -212 75
t-74 210v94q0 131 77 209q78 78 209 78h58q143 0 405 -35v204q0 97 -51 151t-141 54h-236q-88 0 -140 -54t-52 -151v-4h-93v4q0 135 74 209t209 74z" />
    <glyph glyph-name="aring" unicode="&#xe5;" 
d="M465 1460v-125q0 -25 24 -24h150q25 0 25 24v125q0 25 -25 25h-150q-24 0 -24 -25zM408 1313v170q0 29 18 47t47 18h186q29 0 47 -18t19 -45v-170q0 -27 -18 -45t-45 -19l-191 -4q-27 1 -45 19t-18 47zM205 371v-95q0 -92 53 -148t141 -56h109q111 0 221 65l133 80v358
l-463 -2q-92 0 -143 -54t-51 -148zM430 1114h240q135 0 209 -74t73 -209v-829h-92v154l-133 -97q-86 -63 -221 -63h-109q-137 0 -212 75t-74 210v94q0 131 77 209q78 78 209 78h58q143 0 405 -35v204q0 97 -51 151t-141 54h-236q-88 0 -140 -54t-52 -151v-4h-93v4
q0 135 74 209t209 74z" />
    <glyph glyph-name="ae" unicode="&#xe6;" horiz-adv-x="1822" 
d="M199 373v-94q0 -93 52 -149t142 -56h109q111 0 221 65l133 80v359l-463 -3q-90 0 -142 -54t-52 -148zM1403 1032h-260q-91 0 -143 -54t-52 -149v-200h649v200q0 95 -51 149t-143 54zM950 541v-260q0 -95 51 -149t144 -54h258q92 0 145 56t54 147v65h90v-65
q0 -135 -75 -210t-212 -75h-258q-213 0 -270 172l-150 -109q-88 -63 -221 -63h-109q-137 0 -212 75t-74 210v94q0 131 77 209q78 78 209 78h58q143 0 405 -35v204q0 97 -51 151t-141 54h-236q-88 0 -140 -54t-52 -151v-4h-93v4q0 135 74 209t209 74h236q170 0 239 -110
q70 111 240 110h258q135 0 211 -76t76 -211v-286h-740z" />
    <glyph glyph-name="ccedilla" unicode="&#xe7;" horiz-adv-x="1083" 
d="M879 782v41q-1 95 -53 149t-142 54h-256q-92 0 -143 -54t-52 -149v-549q-1 -94 51 -148t144 -54h256q90 0 142 54t53 148v45h92v-45q0 -135 -75 -210t-212 -74h-88l-47 -105h110q152 0 152 -149v-12q0 -150 -152 -150h-210l-103 82h313q35 0 48 16q12 16 12 54v12
q0 37 -12 53t-48 16h-245l94 187h-80q-137 0 -212 75t-75 210v548q0 135 76 211t211 76h256q135 0 211 -76t76 -211v-45h-92z" />
    <glyph glyph-name="egrave" unicode="&#xe8;" 
d="M684 1030h-260q-92 0 -143 -54t-52 -149v-200h650v200q-1 95 -53 149t-142 54zM426 76h258q94 0 146 56t53 147v65h90v-65q0 -135 -75 -210t-212 -75h-258q-137 0 -212 75t-75 210v548q0 135 76 211t211 76h258q135 0 211 -76t76 -211v-286h-740l-2 -262q1 -95 53 -149
t142 -54zM545 1253l-256 295h141l184 -295h-69z" />
    <glyph glyph-name="eacute" unicode="&#xe9;" 
d="M526 1253h-59l184 295h125zM684 1030h-260q-92 0 -143 -54t-52 -149v-200h650v200q-1 95 -53 149t-142 54zM426 76h258q94 0 146 56t53 147v65h90v-65q0 -135 -75 -210t-212 -75h-258q-137 0 -212 75t-75 210v548q0 135 76 211t211 76h258q135 0 211 -76t76 -211v-286
h-740l-2 -262q1 -95 53 -149t142 -54z" />
    <glyph glyph-name="ecircumflex" unicode="&#xea;" 
d="M684 1030h-260q-92 0 -143 -54t-52 -149v-200h650v200q-1 95 -53 149t-142 54zM426 76h258q94 0 146 56t53 147v65h90v-65q0 -135 -75 -210t-212 -75h-258q-137 0 -212 75t-75 210v548q0 135 76 211t211 76h258q135 0 211 -76t76 -211v-286h-740l-2 -262q1 -95 53 -149
t142 -54zM340 1253h-55l215 240h114l217 -240h-55l-219 160z" />
    <glyph glyph-name="edieresis" unicode="&#xeb;" 
d="M780 1262h-129v188h129v-188zM455 1262h-129v188h129v-188zM684 1030h-260q-92 0 -143 -54t-52 -149v-200h650v200q-1 95 -53 149t-142 54zM426 76h258q94 0 146 56t53 147v65h90v-65q0 -135 -75 -210t-212 -75h-258q-137 0 -212 75t-75 210v548q0 135 76 211t211 76h258
q135 0 211 -76t76 -211v-286h-740l-2 -262q1 -95 53 -149t142 -54z" />
    <glyph glyph-name="igrave" unicode="&#xec;" horiz-adv-x="460" 
d="M309 1253h-69l-254 295h139zM276 0h-92v1106h92v-1106z" />
    <glyph glyph-name="iacute" unicode="&#xed;" horiz-adv-x="460" 
d="M276 1106v-1106h-92v1106h92zM221 1253h-59l184 295h125z" />
    <glyph glyph-name="icircumflex" unicode="&#xee;" horiz-adv-x="460" 
d="M229 1413l-217 -160h-53l213 240h115l217 -240h-55zM276 0h-92v1106h92v-1106z" />
    <glyph glyph-name="idieresis" unicode="&#xef;" horiz-adv-x="460" 
d="M276 1106v-1106h-92v1106h92zM457 1264h-129v188h129v-188zM131 1264h-129v188h129v-188z" />
    <glyph glyph-name="eth" unicode="&#xf0;" horiz-adv-x="1130" 
d="M420 915q-82 0 -137 -61t-56 -145v-433q1 -90 53 -146t146 -56h270q90 0 142 56t53 149v495l-139 74q-129 68 -215 67h-117zM987 1067v-788q0 -135 -75 -210t-212 -75h-272q-137 0 -212 75t-75 210v432q0 135 76 211t211 75h117q125 0 215 -65l133 -96v231q0 65 -40 93
t-136 54l-195 56l-143 -131h-100l167 153l-196 58v84l270 -74l137 127h101l-162 -148l121 -34q68 -18 71 -21l60 -20q45 -16 59 -31l39 -39q41 -41 41 -127z" />
    <glyph glyph-name="ntilde" unicode="&#xf1;" horiz-adv-x="1144" 
d="M401 1411l-45 -158h-71l41 166q25 106 123 56l301 -156l45 158h71l-45 -168q-29 -104 -119 -56zM899 825q0 99 -52 153t-140 54h-93q-106 0 -217 -65l-133 -80v-887h-92v1104h92v-154l133 97q90 66 215 65h93q135 0 211 -76t75 -211v-825h-92v825z" />
    <glyph glyph-name="ograve" unicode="&#xf2;" horiz-adv-x="1124" 
d="M692 1114q135 0 211 -76t76 -211v-548q0 -133 -73 -209t-210 -76h-268q-137 0 -212 75t-75 210v548q0 135 76 211t211 76h264zM692 1032h-268q-88 0 -140 -54t-53 -151v-548q1 -93 53 -149t142 -56h268q88 0 142 55q53 57 53 150l-4 548q0 97 -51 151t-142 54zM616 1253
h-69l-256 295h141z" />
    <glyph glyph-name="oacute" unicode="&#xf3;" horiz-adv-x="1124" 
d="M532 1253h-59l184 295h125zM692 1032h-268q-88 0 -140 -54t-53 -151v-548q1 -93 53 -149t142 -56h268q88 0 142 55q53 58 53 150l-4 548q0 97 -51 151t-142 54zM428 1114h264q135 0 211 -76t76 -211v-548q0 -133 -73 -209t-210 -76h-268q-137 0 -212 75t-75 210v548
q0 135 76 211t211 76z" />
    <glyph glyph-name="ocircumflex" unicode="&#xf4;" horiz-adv-x="1124" 
d="M692 1114q135 0 211 -76t76 -211v-548q0 -133 -73 -209t-210 -76h-268q-137 0 -212 75t-75 210v548q0 135 76 211t211 76h264zM692 1032h-268q-88 0 -140 -54t-53 -151v-548q1 -93 53 -149t142 -56h268q88 0 142 55q53 57 53 150l-4 548q0 97 -51 151t-142 54zM559 1413
l-217 -160h-55l215 240h114l218 -240h-56z" />
    <glyph glyph-name="otilde" unicode="&#xf5;" horiz-adv-x="1124" 
d="M391 1411l-45 -158h-72l41 166q25 106 123 56l301 -156l45 158h72l-45 -168q-29 -104 -119 -56zM694 1112q135 0 211 -76t76 -211v-549q0 -132 -73 -208t-210 -76h-268q-137 0 -212 75t-75 209v549q0 135 76 211t211 76h264zM694 1030h-268q-90 0 -141 -54t-52 -151v-549
q-1 -92 53 -148t142 -56h268q90 0 142 56t53 148l-4 549q0 97 -52 151t-141 54z" />
    <glyph glyph-name="odieresis" unicode="&#xf6;" horiz-adv-x="1124" 
d="M786 1262h-129v188h129v-188zM461 1262h-129v188h129v-188zM692 1032h-268q-88 0 -140 -54t-53 -151v-548q1 -93 53 -149t142 -56h268q88 0 142 55q53 58 53 150l-4 548q0 97 -51 151t-142 54zM428 1114h264q135 0 211 -76t76 -211v-548q0 -133 -73 -209t-210 -76h-268
q-137 0 -212 75t-75 210v548q0 135 76 211t211 76z" />
    <glyph glyph-name="divide" unicode="&#xf7;" horiz-adv-x="1040" 
d="M594 371h-150v178h150v-178zM156 797h729v-78h-729v78zM594 967h-150v178h150v-178z" />
    <glyph glyph-name="oslash" unicode="&#xf8;" horiz-adv-x="1124" 
d="M428 76h266q92 0 148 55q55 56 55 148l-2 548q0 84 -45 138l-508 -875q43 -14 86 -14zM696 1030h-266q-92 0 -148 -56t-55 -147l2 -548q0 -86 45 -140l508 875q-43 16 -86 16zM428 1114h266q135 0 211 -76t76 -211v-548q0 -135 -75 -210t-212 -75h-266q-137 0 -212 75
t-75 210v548q0 135 76 211t211 76z" />
    <glyph glyph-name="ugrave" unicode="&#xf9;" horiz-adv-x="1144" 
d="M248 276q0 -92 52 -148t142 -56h93q106 0 215 65l133 80v889h92v-1106h-92v154l-133 -97q-86 -63 -215 -63h-93q-137 0 -212 75t-74 210v827h92v-830zM625 1251h-70l-256 295h141z" />
    <glyph glyph-name="uacute" unicode="&#xfa;" horiz-adv-x="1144" 
d="M541 1251h-60l185 295h125zM248 1106v-830q0 -92 52 -148t142 -56h93q106 0 215 65l133 80v889h92v-1106h-92v154l-133 -97q-86 -63 -215 -63h-93q-137 0 -212 75t-74 210v827h92z" />
    <glyph glyph-name="ucircumflex" unicode="&#xfb;" horiz-adv-x="1144" 
d="M248 276q0 -92 52 -148t142 -56h93q106 0 215 65l133 80v889h92v-1106h-92v154l-133 -97q-86 -63 -215 -63h-93q-137 0 -212 75t-74 210v827h92v-830zM567 1411l-217 -160h-55l215 240h115l217 -240h-56z" />
    <glyph glyph-name="udieresis" unicode="&#xfc;" horiz-adv-x="1144" 
d="M795 1260h-129v188h129v-188zM469 1260h-129v188h129v-188zM248 1106v-830q0 -92 52 -148t142 -56h93q106 0 215 65l133 80v889h92v-1106h-92v154l-133 -97q-86 -63 -215 -63h-93q-137 0 -212 75t-74 210v827h92z" />
    <glyph glyph-name="yacute" unicode="&#xfd;" horiz-adv-x="958" 
d="M455 1253h-60l185 295h125zM915 1106l-505 -1491h-86l129 387l-408 1104h105l339 -997l332 997h94z" />
    <glyph glyph-name="thorn" unicode="&#xfe;" horiz-adv-x="1159" 
d="M926 279v548q0 95 -54 151t-141 56h-119q-106 0 -215 -65l-133 -80v-672l133 -80q109 -66 215 -65h119q87 0 141 56t54 151zM610 1114h119q135 0 211 -76t76 -211v-548q0 -135 -75 -210t-212 -75h-119q-129 0 -215 63l-133 97v-539h-92v1909h92v-572l133 97q90 65 215 65
z" />
    <glyph glyph-name="ydieresis" unicode="&#xff;" horiz-adv-x="958" 
d="M709 1262h-129v188h129v-188zM383 1262h-129v188h129v-188zM915 1106l-505 -1491h-86l129 387l-408 1104h105l339 -997l332 997h94z" />
    <glyph glyph-name="Amacron" unicode="&#x100;" horiz-adv-x="1337" 
d="M965 551l-295 821l-297 -821h592zM995 463h-655l-168 -463h-100l542 1475h111l543 -1475h-107zM924 1630h-510v88h510v-88z" />
    <glyph glyph-name="amacron" unicode="&#x101;" 
d="M823 1360v-88h-510v88h510zM205 371v-95q0 -92 53 -148t141 -56h109q111 0 221 65l133 80v358l-463 -2q-92 0 -143 -54t-51 -148zM430 1114h240q135 0 209 -74t73 -209v-829h-92v154l-133 -97q-86 -63 -221 -63h-109q-137 0 -212 75t-74 210v94q0 131 77 209
q78 78 209 78h58q143 0 405 -35v204q0 97 -51 151t-141 54h-236q-88 0 -140 -54t-52 -151v-4h-93v4q0 135 74 209t209 74z" />
    <glyph glyph-name="Abreve" unicode="&#x102;" horiz-adv-x="1337" 
d="M961 549l-295 821l-297 -821h592zM991 461h-655l-168 -461h-100l542 1473h111l543 -1473h-107zM477 1729v100h78v-100q0 -45 41 -46h141q41 0 41 46v100h78v-100q0 -53 -33 -86t-86 -33l-141 -2q-51 0 -85 34t-34 87z" />
    <glyph glyph-name="abreve" unicode="&#x103;" 
d="M635 1251h-137q-51 0 -85 34t-34 87v101h78v-101q0 -45 41 -45h141q41 0 41 45v101h78l-4 -103q-4 -57 -35 -88t-84 -31zM205 371v-95q0 -92 53 -148t141 -56h109q111 0 221 65l133 80v358l-463 -2q-92 0 -143 -54t-51 -148zM430 1114h240q135 0 209 -74t73 -209v-829
h-92v154l-133 -97q-86 -63 -221 -63h-109q-137 0 -212 75t-74 210v94q0 131 77 209q78 78 209 78h58q143 0 405 -35v204q0 97 -51 151t-141 54h-236q-88 0 -140 -54t-52 -151v-4h-93v4q0 135 74 209t209 74z" />
    <glyph glyph-name="Aogonek" unicode="&#x104;" horiz-adv-x="1337" 
d="M969 551l-295 821l-297 -821h592zM1186 -336q-50 0 -98 22t-64 65q-16 44 31 110l104 139h2l-166 463h-655l-168 -463h-100l542 1475h111l543 -1475h-2l-103 -139q-84 -115 19 -115h184l14 -82h-194z" />
    <glyph glyph-name="aogonek" unicode="&#x105;" 
d="M866 573h-463q-92 0 -143 -54t-51 -148v-95q0 -92 53 -148t141 -56h109q111 0 221 65l133 80v356zM889 -336q-51 0 -99 22t-63 65q-16 44 31 110l104 139v154l-133 -97q-86 -63 -221 -63h-109q-137 0 -212 75t-74 210v94q0 131 77 209q78 78 209 77h58q145 0 405 -34v204
q0 97 -52 151t-140 54h-236q-90 0 -141 -54t-51 -151v-4h-92v4q0 135 73 209q74 74 209 74h236q135 0 209 -74t73 -209v-829h15l-103 -139q-84 -115 19 -115h184l14 -82h-190z" />
    <glyph glyph-name="Cacute" unicode="&#x106;" horiz-adv-x="1302" 
d="M633 1610h-60l185 295h125zM860 -6h-389q-143 0 -220 77t-77 218v897q0 141 78 219t219 78h389q141 0 219 -78t78 -219v-127h-98v127q0 100 -52 154t-147 55h-389q-94 -1 -146 -55t-53 -154v-897q0 -101 52 -155t147 -54h389q94 0 146 54t53 155v127h98v-127
q0 -141 -77 -218t-220 -77z" />
    <glyph glyph-name="cacute" unicode="&#x107;" horiz-adv-x="1083" 
d="M530 1253h-59l184 295h125zM684 -6h-256q-137 0 -212 75t-75 210v548q0 135 76 211t211 76h256q135 0 211 -76t76 -211v-45h-92v45q-1 95 -53 149t-142 54h-256q-92 0 -143 -54t-52 -149v-548q-1 -95 51 -149t144 -54h256q90 0 142 54t53 149v45h92v-45q0 -135 -75 -210
t-212 -75z" />
    <glyph glyph-name="Cdotaccent" unicode="&#x10a;" horiz-adv-x="1302" 
d="M719 1628h-119v164h119v-164zM860 -6h-389q-143 0 -220 77t-77 218v897q0 141 78 219t219 78h389q141 0 219 -78t78 -219v-127h-98v127q0 100 -52 154t-147 55h-389q-94 -1 -146 -55t-53 -154v-897q0 -101 52 -155t147 -54h389q94 0 146 54t53 155v127h98v-127
q0 -141 -77 -218t-220 -77z" />
    <glyph glyph-name="cdotaccent" unicode="&#x10b;" horiz-adv-x="1083" 
d="M616 1272h-118v164h118v-164zM684 -6h-256q-137 0 -212 75t-75 210v548q0 135 76 211t211 76h256q135 0 211 -76t76 -211v-45h-92v45q-1 95 -53 149t-142 54h-256q-92 0 -143 -54t-52 -149v-548q-1 -95 51 -149t144 -54h256q90 0 142 54t53 149v45h92v-45
q0 -135 -75 -210t-212 -75z" />
    <glyph glyph-name="Ccaron" unicode="&#x10c;" horiz-adv-x="1302" 
d="M471 -6q-143 0 -220 77t-77 218v897q0 141 78 219t219 78h389q141 0 219 -78t78 -219v-127h-98v127q0 100 -52 154t-147 55h-389q-94 -1 -146 -55t-53 -154v-897q0 -101 52 -155t147 -54h389q94 0 146 54t53 155v127h98v-127q0 -141 -77 -218t-220 -77h-389zM717 1610
h-115l-215 239h55l217 -161l220 161h55z" />
    <glyph glyph-name="ccaron" unicode="&#x10d;" horiz-adv-x="1083" 
d="M428 -6q-137 0 -212 75t-75 210v548q0 135 76 211t211 76h256q135 0 211 -76t76 -211v-45h-92v45q-1 95 -53 149t-142 54h-256q-92 0 -143 -54t-52 -149v-548q-1 -95 51 -149t144 -54h256q90 0 142 54t53 149v45h92v-45q0 -135 -75 -210t-212 -75h-256zM614 1253h-114
l-215 240h55l217 -162l219 162h55z" />
    <glyph glyph-name="Dcaron" unicode="&#x10e;" horiz-adv-x="1363" 
d="M895 1475q141 0 219 -78t78 -219v-881q0 -141 -78 -219t-219 -78h-686v1475h686zM895 88q96 0 147 54t52 155v881q0 100 -52 154t-147 54h-588v-1298h588zM727 1610h-115l-215 239h56l217 -161l219 161h55z" />
    <glyph glyph-name="dcaron" unicode="&#x10f;" horiz-adv-x="1157" 
d="M430 1030q-90 0 -142 -56t-52 -149v-549q0 -92 52 -148t142 -56h119q106 0 215 65l133 80v672l-133 76q-113 66 -215 65h-119zM1262 1524v-127q0 -31 -62 -164l-53 -113h-51l102 244h-65v160h129zM989 0h-92v154l-133 -97q-86 -63 -215 -63h-119q-137 0 -212 75t-75 210
v548q0 135 76 211t211 76h119q125 0 215 -65l133 -97v572h92v-1524z" />
    <glyph glyph-name="Dcroat" unicode="&#x110;" horiz-adv-x="1363" 
d="M1094 297v881q0 100 -52 154t-147 54h-588v-595h199v-89h-199v-614h588q95 0 147 54t52 155zM209 1475h686q141 0 219 -78t78 -219v-881q0 -141 -78 -219t-219 -78h-686v702h-189v89h189v684z" />
    <glyph glyph-name="dcroat" unicode="&#x111;" horiz-adv-x="1159" 
d="M430 1030q-90 0 -142 -56t-52 -149v-549q0 -92 52 -148t142 -56h119q106 0 215 65l133 80v672l-133 76q-113 66 -215 65h-119zM1120 1223h-131v-1223h-92v154l-133 -97q-86 -63 -215 -63h-119q-137 0 -212 75t-75 210v548q0 135 76 211t211 76h119q125 0 215 -65l133 -97
v271h-197v80h197v221h92v-221h131v-80z" />
    <glyph glyph-name="Emacron" unicode="&#x112;" horiz-adv-x="1214" 
d="M901 1718v-88h-510v88h510zM209 1475h889v-89h-791v-587h674v-88h-674v-623h791v-88h-889v1475z" />
    <glyph glyph-name="emacron" unicode="&#x113;" 
d="M684 1030h-260q-92 0 -143 -54t-52 -149v-200h650v200q-1 95 -53 149t-142 54zM426 76h258q94 0 146 56t53 147v65h90v-65q0 -135 -75 -210t-212 -75h-258q-137 0 -212 75t-75 210v548q0 135 76 211t211 76h258q135 0 211 -76t76 -211v-286h-740l-2 -262q1 -95 53 -149
t142 -54zM811 1274h-510v88h510v-88z" />
    <glyph glyph-name="Edotaccent" unicode="&#x116;" horiz-adv-x="1214" 
d="M707 1628h-119v164h119v-164zM209 1475h889v-89h-791v-587h674v-88h-674v-623h791v-88h-889v1475z" />
    <glyph glyph-name="edotaccent" unicode="&#x117;" 
d="M612 1272h-118v164h118v-164zM684 1030h-260q-92 0 -143 -54t-52 -149v-200h650v200q-1 95 -53 149t-142 54zM426 76h258q94 0 146 56t53 147v65h90v-65q0 -135 -75 -210t-212 -75h-258q-137 0 -212 75t-75 210v548q0 135 76 211t211 76h258q135 0 211 -76t76 -211v-286
h-740l-2 -262q1 -95 53 -149t142 -54z" />
    <glyph glyph-name="Eogonek" unicode="&#x118;" horiz-adv-x="1214" 
d="M1018 -336q-51 0 -98 22q-48 22 -64 65q-16 44 31 110l104 139h-782v1475h889v-89h-791v-587h674v-88h-674v-623h791v-88l-103 -139q-84 -115 19 -115h184l14 -82h-194z" />
    <glyph glyph-name="eogonek" unicode="&#x119;" 
d="M688 1030h-260q-92 0 -143 -54t-52 -149v-200h650v200q-1 95 -53 149t-142 54zM430 76h258q94 0 146 56t53 147v65h90v-65q0 -135 -75 -210t-212 -75h-82l-96 -133q-84 -115 18 -115h185l14 -82h-199q-51 0 -98 22t-63 65q-16 44 30 110l99 133h-70q-137 0 -212 75
t-75 210v548q0 135 76 211t211 76h258q135 0 211 -76t76 -211v-286h-740l3 -262q0 -95 52 -149t142 -54z" />
    <glyph glyph-name="Ecaron" unicode="&#x11a;" horiz-adv-x="1214" 
d="M1098 1475v-89h-791v-587h674v-88h-674v-623h791v-88h-889v1475h889zM705 1610h-115l-215 239h55l217 -161l219 161h56z" />
    <glyph glyph-name="ecaron" unicode="&#x11b;" 
d="M684 1030h-260q-92 0 -143 -54t-52 -149v-200h650v200q-1 95 -53 149t-142 54zM426 76h258q94 0 146 56t53 147v65h90v-65q0 -135 -75 -210t-212 -75h-258q-137 0 -212 75t-75 210v548q0 135 76 211t211 76h258q135 0 211 -76t76 -211v-286h-740l-2 -262q1 -95 53 -149
t142 -54zM500 1253l-215 240h55l217 -162l219 162h55l-217 -240h-114z" />
    <glyph glyph-name="Gbreve" unicode="&#x11e;" horiz-adv-x="1337" 
d="M596 1610q-51 0 -85 34t-34 87v100h78v-100q0 -45 41 -45h141q41 0 41 45v100h78l-4 -102q-4 -57 -35 -89t-84 -30h-137zM469 1395q-96 -1 -147 -55t-52 -154v-901q0 -101 52 -153t147 -52h403q96 0 146 55q49 55 49 154v356h-410v88h508v-444q1 -143 -75 -219t-218 -76
h-403q-143 0 -220 77t-77 218v897q0 141 78 219t219 78h403q142 0 220 -78t77 -219v-115h-98l-4 115q-8 207 -195 209h-403z" />
    <glyph glyph-name="gbreve" unicode="&#x11f;" horiz-adv-x="1157" 
d="M651 1251h-137q-51 0 -85 34t-34 87v101h78v-101q0 -45 41 -45h141q41 0 41 45v101h78l-4 -103q-4 -57 -35 -88t-84 -31zM430 1030q-84 0 -139 -58t-55 -147v-485q0 -92 52 -148t142 -57h119q96 0 215 68l135 78v604l-133 80q-111 66 -217 65h-119zM989 1106v-1215
q0 -135 -76 -211t-211 -75h-247q-135 0 -211 76t-76 210v13h94v-13q0 -96 51 -150t142 -54h247q88 0 142 55q53 57 53 152v323l-133 -96q-90 -66 -215 -66h-119q-135 0 -211 76t-76 211v485q0 135 76 211t211 76h119q125 0 215 -65l133 -97v154h92z" />
    <glyph glyph-name="Gdotaccent" unicode="&#x120;" horiz-adv-x="1337" 
d="M727 1628h-119v164h119v-164zM469 1395q-96 -1 -147 -55t-52 -154v-901q0 -101 52 -153t147 -52h403q96 0 146 55q49 55 49 154v356h-410v88h508v-444q1 -143 -75 -219t-218 -76h-403q-143 0 -220 77t-77 218v897q0 141 78 219t219 78h403q142 0 220 -78t77 -219v-115
h-98l-4 115q-8 207 -195 209h-403z" />
    <glyph glyph-name="gdotaccent" unicode="&#x121;" horiz-adv-x="1157" 
d="M645 1270h-119v164h119v-164zM430 1030q-84 0 -139 -58t-55 -147v-485q0 -92 52 -148t142 -57h119q96 0 215 68l135 78v604l-133 80q-111 66 -217 65h-119zM989 1106v-1215q0 -135 -76 -211t-211 -75h-247q-135 0 -211 76t-76 210v13h94v-13q0 -96 51 -150t142 -54h247
q88 0 142 55q53 57 53 152v323l-133 -96q-90 -66 -215 -66h-119q-135 0 -211 76t-76 211v485q0 135 76 211t211 76h119q125 0 215 -65l133 -97v154h92z" />
    <glyph glyph-name="Gcommaaccent" unicode="&#x122;" horiz-adv-x="1337" 
d="M731 -141v-127q0 -31 -61 -164l-54 -113h-51l103 244h-66v160h129zM469 1395q-96 -1 -147 -55t-52 -154v-901q0 -101 52 -153t147 -52h403q96 0 146 55q49 55 49 154v356h-410v88h508v-444q1 -143 -75 -219t-218 -76h-403q-143 0 -220 77t-77 218v897q0 141 78 219
t219 78h403q142 0 220 -78t77 -219v-115h-98l-4 115q-8 207 -195 209h-403z" />
    <glyph glyph-name="gcommaaccent" unicode="&#x123;" horiz-adv-x="1157" 
d="M522 1260v126q0 31 62 164l53 113h51l-102 -244h65v-159h-129zM430 1030q-84 0 -139 -58t-55 -147v-485q0 -92 52 -148t142 -57h119q96 0 215 68l135 78v604l-133 80q-111 66 -217 65h-119zM989 1106v-1215q0 -135 -76 -211t-211 -75h-247q-135 0 -211 76t-76 210v13h94
v-13q0 -96 51 -150t142 -54h247q88 0 142 55q53 57 53 152v323l-133 -96q-90 -66 -215 -66h-119q-135 0 -211 76t-76 211v485q0 135 76 211t211 76h119q125 0 215 -65l133 -97v154h92z" />
    <glyph glyph-name="Hbar" unicode="&#x126;" horiz-adv-x="1411" 
d="M1108 1149h-805v-348h805v348zM1313 1149h-107v-1149h-98v713h-805v-713h-98v1149h-107v88h107v238h98v-238h805v238h98v-238h107v-88z" />
    <glyph glyph-name="hbar" unicode="&#x127;" horiz-adv-x="1146" 
d="M618 1114h87q135 0 211 -76t75 -211v-827h-92v838q0 86 -49 141t-131 55h-90q-125 0 -240 -69l-127 -78v-887h-92v1223h-131v80h131v221h92v-221h197v-80h-197v-269l125 86q108 74 231 74z" />
    <glyph glyph-name="Imacron" unicode="&#x12a;" horiz-adv-x="514" 
d="M209 0v1475h98v-1475h-98zM512 1718v-88h-510v88h510z" />
    <glyph glyph-name="imacron" unicode="&#x12b;" horiz-adv-x="460" 
d="M276 1106v-1106h-92v1106h92zM485 1368v-88h-508v88h508z" />
    <glyph glyph-name="Iogonek" unicode="&#x12e;" horiz-adv-x="514" 
d="M254 -336q-51 0 -98 22q-48 22 -64 65q-16 44 31 110l104 139h-4v1475h99v-1475h12l-103 -139q-84 -115 19 -115h184l15 -82h-195z" />
    <glyph glyph-name="iogonek" unicode="&#x12f;" horiz-adv-x="460" 
d="M231 -336q-51 0 -98 22t-63 65q-16 44 30 110l105 139h-6v1106h92v-1106h20l-102 -139q-84 -115 18 -115h185l14 -82h-195zM301 1372h-113v152h113v-152z" />
    <glyph glyph-name="Idotaccent" unicode="&#x130;" horiz-adv-x="514" 
d="M209 0v1475h98v-1475h-98zM317 1628h-118v164h118v-164z" />
    <glyph glyph-name="IJ" unicode="&#x132;" horiz-adv-x="1726" 
d="M209 0v1475h98v-1475h-98zM1542 1475v-1186q0 -141 -77 -218t-220 -77h-332q-143 0 -220 77t-77 218v196h99v-196q0 -101 52 -155t146 -54h332q95 0 147 54t52 155v1186h98z" />
    <glyph glyph-name="ij" unicode="&#x133;" horiz-adv-x="952" 
d="M766 1106v-1215q0 -135 -76 -211t-211 -75h-53v82h68q84 0 133 55t49 141v1223h90zM276 1106v-1106h-92v1106h92zM778 1372h-112v152h112v-152zM287 1372h-113v152h113v-152z" />
    <glyph glyph-name="Kcommaaccent" unicode="&#x136;" horiz-adv-x="1368" 
d="M602 -141h129v-127q0 -31 -61 -164l-54 -113h-51l103 244h-66v160zM309 0h-100v1475h100v-940l809 940h131l-547 -619l586 -856h-112l-535 786l-332 -374v-412z" />
    <glyph glyph-name="kcommaaccent" unicode="&#x137;" horiz-adv-x="1026" 
d="M455 -141h129v-127q0 -31 -62 -164l-53 -113h-51l102 244h-65v160zM260 0h-92v1475h92v-1020l559 651h111l-355 -410l392 -696h-107l-340 633l-260 -299v-334z" />
    <glyph glyph-name="Lacute" unicode="&#x139;" horiz-adv-x="1136" 
d="M236 1610h-60l184 295h125zM209 1475h98v-1387h740v-88h-838v1475z" />
    <glyph glyph-name="lacute" unicode="&#x13a;" horiz-adv-x="458" 
d="M203 1659h-60l185 295h125zM186 1524h86v-1524h-86v1524z" />
    <glyph glyph-name="Lcommaaccent" unicode="&#x13b;" horiz-adv-x="1136" 
d="M209 1475h98v-1387h740v-88h-838v1475zM717 -141v-127q0 -31 -62 -164l-53 -113h-51l102 244h-65v160h129z" />
    <glyph glyph-name="lcommaaccent" unicode="&#x13c;" horiz-adv-x="458" 
d="M186 1524h86v-1524h-86v1524zM293 -141v-127q0 -31 -62 -164l-53 -113h-51l102 244h-65v160h129z" />
    <glyph glyph-name="Lcaron" unicode="&#x13d;" horiz-adv-x="1136" 
d="M209 1475h98v-1387h740v-88h-838v1475zM649 1516v-127q0 -31 -61 -164l-53 -113h-52l103 244h-66v160h129z" />
    <glyph glyph-name="lcaron" unicode="&#x13e;" horiz-adv-x="458" 
d="M186 1524h86v-1524h-86v1524zM549 1524v-127q0 -31 -62 -164l-53 -113h-51l102 244h-65v160h129z" />
    <glyph glyph-name="Ldot" unicode="&#x13f;" horiz-adv-x="1136" 
d="M895 662h-145v167h145v-167zM209 1475h98v-1387h740v-88h-838v1475z" />
    <glyph glyph-name="ldot" unicode="&#x140;" horiz-adv-x="643" 
d="M186 1524h86v-1524h-86v1524zM604 745h-129v160h129v-160z" />
    <glyph glyph-name="Lslash" unicode="&#x141;" horiz-adv-x="1136" 
d="M1047 86v-86h-838v717l-139 -60v97l139 59v662h98v-621l260 111v-97l-260 -110v-672h740z" />
    <glyph glyph-name="lslash" unicode="&#x142;" horiz-adv-x="563" 
d="M324 0h-86v748l-211 -86v96l211 88v678h86v-643l213 88v-99l-213 -88v-782z" />
    <glyph glyph-name="Nacute" unicode="&#x143;" horiz-adv-x="1445" 
d="M711 1610h-60l185 295h125zM1143 1475h96v-1475h-119l-815 1346v-1346h-96v1475h119l815 -1346v1346z" />
    <glyph glyph-name="nacute" unicode="&#x144;" horiz-adv-x="1144" 
d="M549 1253h-60l185 295h125zM897 0v827q0 99 -51 153t-141 54h-93q-106 0 -217 -65l-133 -80v-889h-92v1106h92v-154l133 97q90 66 215 65h92q135 0 211 -76t76 -211v-827h-92z" />
    <glyph glyph-name="Ncommaaccent" unicode="&#x145;" horiz-adv-x="1445" 
d="M1143 1475h96v-1475h-119l-815 1346v-1346h-96v1475h119l815 -1346v1346zM786 -141v-127q0 -31 -61 -164l-53 -113h-51l102 244h-66v160h129z" />
    <glyph glyph-name="ncommaaccent" unicode="&#x146;" horiz-adv-x="1144" 
d="M897 0v827q0 99 -51 153t-141 54h-93q-106 0 -217 -65l-133 -80v-889h-92v1106h92v-154l133 97q90 66 215 65h92q135 0 211 -76t76 -211v-827h-92zM643 -141v-127q0 -31 -61 -164l-54 -113h-51l103 244h-66v160h129z" />
    <glyph glyph-name="Ncaron" unicode="&#x147;" horiz-adv-x="1445" 
d="M1239 1475v-1475h-119l-815 1346v-1346h-96v1475h119l815 -1346v1346h96zM795 1610h-115l-215 239h55l217 -161l219 161h56z" />
    <glyph glyph-name="ncaron" unicode="&#x148;" horiz-adv-x="1144" 
d="M897 827q0 99 -51 153t-141 54h-93q-106 0 -217 -65l-133 -80v-889h-92v1106h92v-154l133 97q90 66 215 65h92q135 0 211 -76t76 -211v-827h-92v827zM633 1253h-115l-215 240h55l217 -162l220 162h55z" />
    <glyph glyph-name="Eng" unicode="&#x14a;" horiz-adv-x="1447" 
d="M1241 1475v-1575q0 -141 -78 -219t-219 -78h-92v92h92q96 0 148 56t53 151v80l-840 1366v-1348h-96v1475h121l815 -1344v1344h96z" />
    <glyph glyph-name="eng" unicode="&#x14b;" horiz-adv-x="1144" 
d="M610 1114h92q135 0 211 -76t76 -211v-933q0 -135 -76 -211t-211 -76h-84v82h84q195 0 195 205v933q0 99 -51 153t-141 54h-93q-106 0 -217 -65l-133 -80v-889h-92v1106h92v-154l133 97q90 65 215 65z" />
    <glyph glyph-name="Omacron" unicode="&#x14c;" horiz-adv-x="1355" 
d="M934 1718v-88h-510v88h510zM272 1186v-897q0 -101 52 -155t147 -54h416q96 0 147 54t51 155v897q0 100 -51 154t-147 55h-416q-95 -1 -147 -55t-52 -154zM887 -6h-416q-143 0 -220 77t-77 218v897q0 141 78 219t219 78h416q141 0 219 -78t78 -219v-897q0 -141 -77 -218
t-220 -77z" />
    <glyph glyph-name="omacron" unicode="&#x14d;" horiz-adv-x="1124" 
d="M813 1362v-88h-510v88h510zM692 1032h-268q-88 0 -140 -54t-53 -151v-548q1 -93 53 -149t142 -56h268q88 0 142 55q53 58 53 150l-4 548q0 97 -51 151t-142 54zM428 1114h264q135 0 211 -76t76 -211v-548q0 -133 -73 -209t-210 -76h-268q-137 0 -212 75t-75 210v548
q0 135 76 211t211 76z" />
    <glyph glyph-name="Ohungarumlaut" unicode="&#x150;" horiz-adv-x="1355" 
d="M272 1186v-897q0 -101 52 -155t147 -54h416q96 0 147 54t51 155v897q0 100 -51 154t-147 55h-416q-95 -1 -147 -55t-52 -154zM887 -6h-416q-143 0 -220 77t-77 218v897q0 141 78 219t219 78h416q141 0 219 -78t78 -219v-897q0 -141 -77 -218t-220 -77zM1034 1907
l-239 -297h-107l240 297h106zM778 1907l-239 -297h-107l240 297h106z" />
    <glyph glyph-name="ohungarumlaut" unicode="&#x151;" horiz-adv-x="1124" 
d="M692 1032h-268q-88 0 -140 -54t-53 -151v-548q1 -93 53 -149t142 -56h268q88 0 142 55q53 58 53 150l-4 548q0 97 -51 151t-142 54zM428 1114h264q135 0 211 -76t76 -211v-548q0 -133 -73 -209t-210 -76h-268q-137 0 -212 75t-75 210v548q0 135 76 211t211 76zM920 1550
l-240 -297h-107l240 297h107zM664 1550l-240 -297h-107l240 297h107z" />
    <glyph glyph-name="OE" unicode="&#x152;" horiz-adv-x="2025" 
d="M1001 119v1237q0 31 -32 30h-498q-94 0 -146 -54t-53 -154v-881q0 -101 52 -155t147 -54h498q32 0 32 31zM1100 1386v-581h721v-88h-721v-629h809v-88h-1438q-141 0 -219 78t-78 219v881q0 141 78 219t219 78h1438v-89h-809z" />
    <glyph glyph-name="oe" unicode="&#x153;" horiz-adv-x="1855" 
d="M1430 1030h-261q-92 0 -143 -54t-51 -149v-200h649v200q0 95 -52 149t-142 54zM426 74h264q88 0 141 56t54 149v548q0 97 -51 151t-142 54h-268q-88 0 -140 -54t-53 -151v-548q1 -93 53 -149t142 -56zM1176 76h258q94 0 146 56t52 147v65h90v-65q0 -135 -74 -210
t-212 -75h-258q-170 0 -242 110q-72 -111 -240 -110h-268q-137 0 -212 75t-75 210v548q0 135 76 211t211 76h266q168 0 242 -115q74 115 242 115h258q135 0 211 -76t75 -211v-286h-739l-2 -262q0 -95 52 -149t143 -54z" />
    <glyph glyph-name="Racute" unicode="&#x154;" horiz-adv-x="1347" 
d="M655 1610h-59l184 295h125zM307 723h572q96 0 147 54t51 155v246q0 100 -51 154t-147 54h-572v-663zM307 635v-635h-98v1475h670q141 0 219 -78t78 -219v-248q0 -295 -306 -295l351 -635h-111l-346 635h-457z" />
    <glyph glyph-name="racute" unicode="&#x155;" horiz-adv-x="757" 
d="M369 1253h-60l185 295h124zM696 1032h-86q-102 0 -215 -67l-133 -78v-887h-92v1106h92v-154l133 97q90 66 215 65h86v-82z" />
    <glyph glyph-name="Rcommaaccent" unicode="&#x156;" horiz-adv-x="1347" 
d="M604 -141h129v-127q0 -31 -61 -164l-54 -113h-51l103 244h-66v160zM307 723h572q96 0 147 54t51 155v246q0 100 -51 154t-147 54h-572v-663zM307 635v-635h-98v1475h670q141 0 219 -78t78 -219v-248q0 -295 -306 -295l351 -635h-111l-346 635h-457z" />
    <glyph glyph-name="rcommaaccent" unicode="&#x157;" horiz-adv-x="757" 
d="M696 1032h-86q-102 0 -215 -67l-133 -78v-887h-92v1106h92v-154l133 97q90 66 215 65h86v-82zM276 -141v-127q0 -31 -61 -164l-53 -113h-51l102 244h-66v160h129z" />
    <glyph glyph-name="Rcaron" unicode="&#x158;" horiz-adv-x="1347" 
d="M307 723h572q96 0 147 54t51 155v246q0 100 -51 154t-147 54h-572v-663zM307 635v-635h-98v1475h670q141 0 219 -78t78 -219v-248q0 -295 -306 -295l351 -635h-111l-346 635h-457zM625 1610l-215 239h55l217 -161l219 161h55l-217 -239h-114z" />
    <glyph glyph-name="rcaron" unicode="&#x159;" horiz-adv-x="757" 
d="M610 1032q-102 0 -215 -67l-133 -78v-887h-92v1106h92v-154l133 97q90 66 215 65h86v-82h-86zM453 1253h-115l-215 240h55l217 -162l219 162h56z" />
    <glyph glyph-name="Sacute" unicode="&#x15a;" horiz-adv-x="1286" 
d="M618 1608h-59l184 295h125zM467 1393q-96 1 -145 -55t-50 -154v-140q0 -106 51 -144t117 -52l381 -96q106 -29 141 -42t77 -44q79 -58 79 -205v-172q0 -143 -76 -219t-217 -76h-360q-143 0 -220 77t-77 218v131h100v-131q0 -101 52 -155t147 -54h358q96 0 146 55
q49 55 49 154v168q0 104 -37 139q-39 35 -133 59l-381 95q-161 39 -229 95t-68 197v144q0 141 78 219t219 78h336q141 0 219 -78t78 -219v-109h-101l-2 107q-8 207 -198 209h-334z" />
    <glyph glyph-name="sacute" unicode="&#x15b;" horiz-adv-x="1054" 
d="M494 1253h-60l184 295h125zM649 1030h-254q-172 0 -172 -176v-57q0 -72 34 -103t116 -43l327 -55q122 -23 178 -74t56 -164v-104q0 -123 -64 -191t-192 -67h-299q-260 0 -260 258v72h86v-72q0 -180 174 -180h299q168 0 168 180v104q0 72 -34 103t-116 43l-327 55
q-123 23 -179 74q-55 51 -55 164v57q0 260 260 260h258q125 0 191 -68t65 -192v-53h-86l-2 53q-6 176 -172 176z" />
    <glyph glyph-name="Scedilla" unicode="&#x15e;" horiz-adv-x="1286" 
d="M1120 459v-172q0 -143 -76 -219t-217 -76h-143l-47 -105h111q152 0 151 -149v-12q0 -150 -151 -150h-211l-103 82h314q35 0 47 15t12 55v12q0 37 -12 53t-47 17h-246l94 186h-129q-143 0 -220 77t-77 218v131h100v-131q0 -101 52 -155t147 -54h358q96 0 146 55
q49 55 49 154v168q0 106 -38 140t-132 58l-381 95q-161 39 -229 95t-68 197v144q0 141 78 219t219 78h336q141 0 219 -78t78 -219v-109h-100v109q0 100 -52 154t-147 55h-334q-96 1 -145 -55t-50 -154v-139q0 -107 51 -145t117 -52l379 -102q106 -29 141 -42t77 -44
q79 -58 79 -205z" />
    <glyph glyph-name="scedilla" unicode="&#x15f;" horiz-adv-x="1054" 
d="M932 352v-104q0 -123 -64 -191t-192 -67h-84l-47 -105h110q152 0 152 -149v-12q0 -150 -152 -150h-211l-102 82h313q35 0 47 16t13 54v12q-1 37 -13 53t-47 16h-245l94 187h-127q-260 0 -260 258v72h86v-72q0 -180 174 -180h299q168 0 168 180v104q0 72 -34 103t-116 43
l-327 55q-123 19 -179 73t-55 165v57q0 260 260 260h258q127 0 192 -69t64 -191v-53h-86v53q0 176 -172 176h-254q-172 0 -172 -176v-57q0 -72 32 -101t118 -45l325 -59q122 -20 178 -74t56 -164z" />
    <glyph glyph-name="Scaron" unicode="&#x160;" horiz-adv-x="1286" 
d="M467 1393q-96 1 -145 -55t-50 -154v-140q0 -106 51 -144t117 -52l381 -96q106 -29 141 -42t77 -44q79 -58 79 -205v-172q0 -143 -76 -219t-217 -76h-360q-143 0 -220 77t-77 218v131h100v-131q0 -101 52 -155t147 -54h358q96 0 146 55q49 55 49 154v168q0 106 -38 140
t-132 58l-381 95q-161 39 -229 95t-68 197v144q0 141 78 219t219 78h336q141 0 219 -78t78 -219v-109h-101l-2 107q-8 207 -198 209h-334zM702 1608h-114l-215 239h55l217 -161l219 161h56z" />
    <glyph glyph-name="scaron" unicode="&#x161;" horiz-adv-x="1054" 
d="M649 1030h-254q-172 0 -172 -176v-57q0 -72 34 -103t116 -43l327 -55q122 -23 178 -74t56 -164v-104q0 -123 -64 -191t-192 -67h-299q-260 0 -260 258v72h86v-72q0 -180 174 -180h299q168 0 168 180v104q0 72 -34 103t-116 43l-327 55q-123 23 -179 74q-55 51 -55 164v57
q0 260 260 260h258q125 0 191 -68t65 -192v-53h-86l-2 53q-6 176 -172 176zM578 1253h-115l-215 240h55l217 -162l219 162h56z" />
    <glyph glyph-name="Tcedilla" unicode="&#x162;" horiz-adv-x="1157" 
d="M676 -115q152 0 151 -149v-12q0 -150 -151 -150h-211l-103 82h314q35 0 47 16t12 54v12q0 37 -12 53t-47 16h-246l98 193v1386h-458v89h1015v-89h-458v-1386h-11l-51 -115h111z" />
    <glyph glyph-name="tcedilla" unicode="&#x163;" horiz-adv-x="827" 
d="M860 -276q0 -150 -151 -150h-211l-103 82h314q35 0 47 16t12 54v12q0 37 -12 53t-47 16h-246l98 193h-12q-135 0 -211 76t-76 211v741h-201v78h203v369h88v-369h387v-78h-385v-741q0 -95 52 -153t143 -58h190v-76h-90l-51 -111l111 -4q152 -6 151 -149v-12z" />
    <glyph glyph-name="Tcaron" unicode="&#x164;" horiz-adv-x="1157" 
d="M627 1386v-1386h-99v1386h-458v89h1015v-89h-458zM635 1610h-115l-215 239h55l218 -161l219 161h55z" />
    <glyph glyph-name="tcaron" unicode="&#x165;" horiz-adv-x="827" 
d="M354 1028v-741q0 -95 52 -153t143 -58h190v-76h-190q-135 0 -211 76t-76 211v741h-201v78h203v369h88v-369h387v-78h-385zM721 1679v-127q0 -31 -62 -163l-53 -113h-51l102 244h-65v159h129z" />
    <glyph glyph-name="Tbar" unicode="&#x166;" horiz-adv-x="1157" 
d="M831 1718v-88h-509v88h509zM1085 1386h-458v-1386h-99v1386h-458v89h1015v-89z" />
    <glyph glyph-name="tbar" unicode="&#x167;" horiz-adv-x="827" 
d="M354 1028v-285h240v-88h-240v-368q0 -95 52 -153t143 -58h190v-76h-190q-135 0 -211 76t-76 211v368h-178v88h178v285h-201v78h203v369h88v-369h387v-78h-385z" />
    <glyph glyph-name="Umacron" unicode="&#x16a;" horiz-adv-x="1357" 
d="M934 1718v-88h-510v88h510zM1174 1475v-1186q0 -141 -77 -218t-220 -77h-394q-143 0 -220 77t-77 218v1186h99v-1186q0 -101 52 -155t146 -54h394q94 0 146 54t52 155v1186h99z" />
    <glyph glyph-name="umacron" unicode="&#x16b;" horiz-adv-x="1144" 
d="M821 1360v-88h-510v88h510zM248 1106v-830q0 -92 52 -148t142 -56h93q106 0 215 65l133 80v889h92v-1106h-92v154l-133 -97q-86 -63 -215 -63h-93q-137 0 -212 75t-74 210v827h92z" />
    <glyph glyph-name="Uring" unicode="&#x16e;" horiz-adv-x="1357" 
d="M1169 1470v-1185q-1 -141 -77 -218t-220 -77h-393q-143 0 -220 77t-77 218v1185h99v-1185q0 -101 52 -155t146 -54h393q94 0 146 54t53 155v1185h98zM575 1819v-125q0 -25 25 -25h150q25 0 24 25v125q0 25 -24 24h-150q-25 1 -25 -24zM518 1841q0 29 18 47t48 19h186
q29 -1 47 -19t19 -45v-170q0 -27 -18 -45t-46 -18l-190 -4q-27 0 -45 18t-19 47v170z" />
    <glyph glyph-name="uring" unicode="&#x16f;" horiz-adv-x="1144" 
d="M463 1460v-125q0 -25 24 -24h150q25 0 25 24v125q0 25 -25 25h-150q-24 0 -24 -25zM406 1313v170q0 29 18 47t47 18h186q29 0 47 -18t19 -45v-170q-1 -27 -19 -45t-45 -19l-190 -4q-27 1 -45 19t-18 47zM248 1106v-830q0 -92 52 -148t142 -56h93q106 0 215 65l133 80v889
h92v-1106h-92v154l-133 -97q-86 -63 -215 -63h-93q-137 0 -212 75t-74 210v827h92z" />
    <glyph glyph-name="Uhungarumlaut" unicode="&#x170;" horiz-adv-x="1357" 
d="M1174 1475v-1186q0 -141 -77 -218t-220 -77h-394q-143 0 -220 77t-77 218v1186h99v-1186q0 -101 52 -155t146 -54h394q94 0 146 54t52 155v1186h99zM1034 1907l-239 -297h-107l240 297h106zM778 1907l-239 -297h-107l240 297h106z" />
    <glyph glyph-name="uhungarumlaut" unicode="&#x171;" horiz-adv-x="1144" 
d="M248 1106v-830q0 -92 52 -148t142 -56h93q106 0 215 65l133 80v889h92v-1106h-92v154l-133 -97q-86 -63 -215 -63h-93q-137 0 -212 75t-74 210v827h92zM922 1550l-240 -297h-107l240 297h107zM666 1550l-240 -297h-107l240 297h107z" />
    <glyph glyph-name="Uogonek" unicode="&#x172;" horiz-adv-x="1357" 
d="M881 -6h-131l-95 -131q-84 -115 19 -115h184l14 -82h-198q-50 0 -98 22t-64 65q-16 44 31 110l96 131h-156q-143 0 -220 77t-77 218v1186h99v-1186q0 -101 52 -155t146 -54h394q94 0 146 54t52 155v1186h99l4 -1186q0 -141 -77 -218t-220 -77z" />
    <glyph glyph-name="uogonek" unicode="&#x173;" horiz-adv-x="1144" 
d="M885 0v152l-133 -97q-86 -63 -215 -63h-93q-137 0 -212 75t-74 209v828h92v-828q0 -92 53 -148t141 -56h93q106 0 215 65l133 80v889h92v-1106h35l-103 -139q-84 -115 19 -115h184l14 -82l-194 -2q-50 0 -98 22t-64 65q-16 44 31 110l104 141h-20z" />
    <glyph glyph-name="Wcircumflex" unicode="&#x174;" horiz-adv-x="1849" 
d="M1253 0l-327 1317l-330 -1317h-111l-415 1475h102l367 -1340l335 1340h103l334 -1340l366 1340h103l-416 -1475h-111zM926 1769l-217 -159h-56l215 239h115l217 -239h-55z" />
    <glyph glyph-name="wcircumflex" unicode="&#x175;" horiz-adv-x="1488" 
d="M995 0l-250 967l-249 -967h-113l-338 1106h90l303 -1028l260 1028h93l260 -1028l309 1028h86l-344 -1106h-107zM743 1413l-217 -160h-55l215 240h115l217 -240h-55z" />
    <glyph glyph-name="Ycircumflex" unicode="&#x176;" horiz-adv-x="1234" 
d="M567 0v561l-528 914h117l460 -820l461 820h117l-528 -914v-561h-99zM616 1769l-217 -159h-55l215 239h115l217 -239h-55z" />
    <glyph glyph-name="ycircumflex" unicode="&#x177;" horiz-adv-x="958" 
d="M915 1106l-505 -1491h-86l129 387l-408 1104h105l339 -997l332 997h94zM264 1253h-55l215 240h115l217 -240h-56l-219 160z" />
    <glyph glyph-name="Ydieresis" unicode="&#x178;" horiz-adv-x="1234" 
d="M844 1618h-129v188h129v-188zM518 1618h-129v188h129v-188zM666 0h-99v561l-528 914h117l460 -820l461 820h117l-528 -914v-561z" />
    <glyph glyph-name="Zacute" unicode="&#x179;" horiz-adv-x="1218" 
d="M602 1610h-59l184 295h125zM164 1386v89h926v-70l-846 -1317h841v-88h-956v70l844 1316h-809z" />
    <glyph glyph-name="zacute" unicode="&#x17a;" horiz-adv-x="921" 
d="M453 1253h-60l185 295h124zM121 1030v76h719v-49l-641 -981h626v-76h-737v47l639 983h-606z" />
    <glyph glyph-name="Zdotaccent" unicode="&#x17b;" horiz-adv-x="1218" 
d="M688 1628h-119v164h119v-164zM164 1386v89h926v-70l-846 -1317h841v-88h-956v70l844 1316h-809z" />
    <glyph glyph-name="zdotaccent" unicode="&#x17c;" horiz-adv-x="921" 
d="M539 1272h-119v164h119v-164zM121 1030v76h719v-49l-641 -981h626v-76h-737v47l639 983h-606z" />
    <glyph glyph-name="Zcaron" unicode="&#x17d;" horiz-adv-x="1218" 
d="M164 1386v89h926v-70l-846 -1317h841v-88h-956v70l844 1316h-809zM686 1610h-115l-215 239h56l217 -161l219 161h55z" />
    <glyph glyph-name="zcaron" unicode="&#x17e;" horiz-adv-x="921" 
d="M121 1030v76h719v-49l-641 -981h626v-76h-737v47l639 983h-606zM537 1253h-115l-215 240h55l217 -162l219 162h56z" />
    <glyph glyph-name="florin" unicode="&#x192;" horiz-adv-x="792" 
d="M723 1386h-102q-95 0 -147 -54t-52 -154v-291h280v-86h-280v-514q0 -131 -78 -209t-209 -78h-65v88h65q188 0 189 199v514h-240v86h240v291q0 141 77 219q78 78 220 78h102v-89z" />
    <glyph glyph-name="circumflex" unicode="&#x2c6;" horiz-adv-x="1351" 
d="M676 1769l-217 -159h-56l215 239h115l217 -239h-55z" />
    <glyph glyph-name="caron" unicode="&#x2c7;" horiz-adv-x="1351" 
d="M733 1610h-115l-215 239h56l217 -161l219 161h55z" />
    <glyph glyph-name="breve" unicode="&#x2d8;" horiz-adv-x="1265" 
d="M563 1610q-51 0 -85 34t-34 87v100h78v-100q0 -45 41 -45h142q41 0 40 45v100h78l-4 -102q-4 -57 -35 -89t-84 -30h-137z" />
    <glyph glyph-name="dotaccent" unicode="&#x2d9;" horiz-adv-x="978" 
d="M549 1628h-119v164h119v-164z" />
    <glyph glyph-name="ring" unicode="&#x2da;" horiz-adv-x="704" 
d="M250 1819v-125q0 -25 24 -25h150q25 0 25 25v125q0 25 -25 24h-150q-24 1 -24 -24zM193 1671v170q0 29 18 47t47 19h186q30 -1 48 -19t18 -45v-170q0 -27 -18 -45t-46 -18l-190 -4q-27 0 -45 18t-18 47z" />
    <glyph glyph-name="ogonek" unicode="&#x2db;" horiz-adv-x="800" 
d="M391 -254h184l15 -82h-199q-51 0 -98 22t-63 65q-16 44 30 110l105 139h106l-98 -139q-82 -115 18 -115z" />
    <glyph glyph-name="tilde" unicode="&#x2dc;" horiz-adv-x="1249" 
d="M451 1767l-45 -157h-72l41 166q25 106 123 55l301 -156l45 158h71l-45 -168q-29 -104 -118 -55z" />
    <glyph glyph-name="hungarumlaut" unicode="&#x2dd;" horiz-adv-x="1536" 
d="M1069 1907l-240 -297h-106l240 297h106zM813 1907l-240 -297h-106l240 297h106z" />
    <glyph glyph-name="commaaccentcomb" unicode="&#x326;" horiz-adv-x="0" 
d="M418 -141v-127q0 -31 -62 -164l-53 -113h-51l102 244h-65v160h129z" />
    <glyph glyph-name="Wgrave" unicode="&#x1e80;" horiz-adv-x="1849" 
d="M1253 0l-327 1317l-330 -1317h-111l-415 1475h102l367 -1340l335 1340h103l334 -1340l366 1340h103l-416 -1475h-111zM983 1610h-70l-256 295h142z" />
    <glyph glyph-name="wgrave" unicode="&#x1e81;" horiz-adv-x="1488" 
d="M995 0l-250 967l-249 -967h-113l-338 1106h90l303 -1028l260 1028h93l260 -1028l309 1028h86l-344 -1106h-107zM801 1253h-70l-256 295h141z" />
    <glyph glyph-name="Wacute" unicode="&#x1e82;" horiz-adv-x="1849" 
d="M899 1610h-59l184 295h125zM1364 0h-111l-327 1317l-330 -1317h-111l-415 1475h102l367 -1340l335 1340h103l334 -1340l366 1340h103z" />
    <glyph glyph-name="wacute" unicode="&#x1e83;" horiz-adv-x="1488" 
d="M717 1253h-60l185 295h125zM1102 0h-107l-250 967l-249 -967h-113l-338 1106h90l303 -1028l260 1028h93l260 -1028l309 1028h86z" />
    <glyph glyph-name="Wdieresis" unicode="&#x1e84;" horiz-adv-x="1849" 
d="M1153 1618h-129v188h129v-188zM827 1618h-129v188h129v-188zM1364 0h-111l-327 1317l-330 -1317h-111l-415 1475h102l367 -1340l335 1340h103l334 -1340l366 1340h103z" />
    <glyph glyph-name="wdieresis" unicode="&#x1e85;" horiz-adv-x="1488" 
d="M971 1262h-129v188h129v-188zM645 1262h-129v188h129v-188zM1102 0h-107l-250 967l-249 -967h-113l-338 1106h90l303 -1028l260 1028h93l260 -1028l309 1028h86z" />
    <glyph glyph-name="Ygrave" unicode="&#x1ef2;" horiz-adv-x="1234" 
d="M567 0v561l-528 914h117l460 -820l461 820h117l-528 -914v-561h-99zM674 1610h-70l-256 295h141z" />
    <glyph glyph-name="ygrave" unicode="&#x1ef3;" horiz-adv-x="958" 
d="M915 1106l-505 -1491h-86l129 387l-408 1104h105l339 -997l332 997h94zM469 1253l-256 295h141l185 -295h-70z" />
    <glyph glyph-name="endash" unicode="&#x2013;" horiz-adv-x="1138" 
d="M999 723v-92h-860v92h860z" />
    <glyph glyph-name="emdash" unicode="&#x2014;" horiz-adv-x="1669" 
d="M1530 719v-86h-1391v86h1391z" />
    <glyph glyph-name="quoteleft" unicode="&#x2018;" horiz-adv-x="440" 
d="M156 1071v127q0 31 61 164l53 113h52l-103 -244h66v-160h-129z" />
    <glyph glyph-name="quoteright" unicode="&#x2019;" horiz-adv-x="440" 
d="M285 1475v-127q0 -31 -62 -164l-53 -113h-51l102 244h-65v160h129z" />
    <glyph glyph-name="quotesinglbase" unicode="&#x201a;" horiz-adv-x="440" 
d="M285 160v-127q0 -29 -62 -162l-53 -113h-51l102 242h-65v160h129z" />
    <glyph glyph-name="quotedblleft" unicode="&#x201c;" horiz-adv-x="710" 
d="M426 1071v127q0 31 61 164l54 113h51l-103 -244h66v-160h-129zM156 1071v127q0 31 61 164l53 113h52l-103 -244h66v-160h-129z" />
    <glyph glyph-name="quotedblright" unicode="&#x201d;" horiz-adv-x="708" 
d="M553 1475v-127q0 -31 -61 -164l-54 -113h-51l102 244h-65v160h129zM285 1475v-127q0 -31 -62 -164l-53 -113h-51l102 244h-65v160h129z" />
    <glyph glyph-name="quotedblbase" unicode="&#x201e;" horiz-adv-x="440" 
d="M285 160v-127q0 -29 -62 -162l-53 -113h-51l102 242h-65v160h129z" />
    <glyph glyph-name="dagger" unicode="&#x2020;" horiz-adv-x="765" 
d="M672 1018h-240v-1018h-98v1018h-238v88h238v369h98v-369h240v-88z" />
    <glyph glyph-name="daggerdbl" unicode="&#x2021;" horiz-adv-x="765" 
d="M432 1018v-561h240v-88h-240v-369h-98v369h-238v88h238v561h-238v88h238v369h98v-369h240v-88h-240z" />
    <glyph glyph-name="bullet" unicode="&#x2022;" horiz-adv-x="876" 
d="M516 608h-154q-34 0 -56 23t-21 55v152q1 34 23 56t54 21h154q34 -1 56 -23t22 -54v-152q0 -34 -22 -56t-56 -22z" />
    <glyph glyph-name="ellipsis" unicode="&#x2026;" horiz-adv-x="1288" 
d="M1133 0h-129v160h129v-160zM709 0h-129v160h129v-160zM285 0h-129v160h129v-160z" />
    <glyph glyph-name="perthousand" unicode="&#x2030;" horiz-adv-x="1863" 
d="M1653 119v301q0 45 -37 45h-168q-18 0 -30 -12t-13 -31v-305q0 -21 12 -33t31 -12h168q37 0 37 47zM1100 123v301q0 45 -37 45h-168q-19 0 -31 -12t-12 -31v-305q0 -21 12 -33t31 -12h168q37 0 37 47zM1440 561h180q53 0 92 -39t39 -92v-311q0 -53 -38 -91t-93 -38h-182
q-55 0 -93 38t-38 91v311q0 51 40 91t93 40zM889 561h180q53 0 92 -39t39 -92v-311q0 -53 -38 -91t-93 -38h-182q-55 0 -93 38t-38 91v311q0 51 40 91t93 40zM453 1044v302q0 45 -37 45h-168q-18 -1 -30 -13t-13 -30v-306q0 -20 12 -32t31 -13h168q37 0 37 47zM1102 1475
l-817 -1475h-84l813 1475h88zM240 1483h180q53 0 92 -39t39 -92v-312q0 -53 -39 -92t-92 -39h-182q-53 0 -93 39q-39 39 -39 92v312q0 51 40 91t94 40z" />
    <glyph glyph-name="guilsinglleft" unicode="&#x2039;" horiz-adv-x="509" 
d="M426 1145l-285 -426l285 -424h-98l-262 387v74l262 389h98z" />
    <glyph glyph-name="guilsinglright" unicode="&#x203a;" horiz-adv-x="509" 
d="M442 756v-74l-262 -387h-98l285 424l-285 426h98z" />
    <glyph glyph-name="fraction" unicode="&#x2044;" horiz-adv-x="237" 
d="M545 1475l-760 -1475h-90l760 1475h90z" />
    <glyph glyph-name="zerosuperior" unicode="&#x2070;" horiz-adv-x="702" 
d="M248 1069h203q33 0 51 18t18 46v421q0 27 -18 45t-51 19h-203q-34 0 -52 -18t-18 -46l-2 -421q0 -27 18 -45t54 -19zM461 983h-217q-72 0 -115 37t-43 102v439q0 67 43 103t115 36h217q73 0 115 -37t42 -102v-439q0 -66 -42 -102t-115 -37z" />
    <glyph glyph-name="foursuperior" unicode="&#x2074;" horiz-adv-x="720" 
d="M455 1239v330l-291 -330h291zM664 1153h-115v-166h-94v166h-394l-8 74l398 473h98v-461h115v-86z" />
    <glyph glyph-name="fivesuperior" unicode="&#x2075;" horiz-adv-x="665" 
d="M575 1610h-399v-238l66 43q55 35 104 35h88q72 0 114 -39t42 -100v-187q0 -63 -42 -103t-114 -40h-198q-76 0 -118 40t-42 103v64h94v-55q0 -63 70 -64h184q70 0 70 64v167q0 30 -18 48t-54 18h-74q-63 0 -115 -29l-55 -28l-94 30v361l491 -2v-88z" />
    <glyph glyph-name="sixsuperior" unicode="&#x2076;" horiz-adv-x="679" 
d="M244 1065h182q72 0 72 63v148q0 63 -74 63h-84q-53 0 -111 -26l-55 -27l-2 -158q0 -27 18 -45t54 -18zM246 1610q-70 0 -70 -64v-198l66 45q39 33 104 32h94q72 0 114 -39t42 -100v-166q0 -63 -42 -103t-114 -40h-198q-76 0 -118 40t-42 103v434q0 64 42 104t118 40h188
q74 0 116 -40t42 -104v-57h-94l-5 49q-6 63 -69 64h-174z" />
    <glyph glyph-name="sevensuperior" unicode="&#x2077;" horiz-adv-x="628" 
d="M47 1612v88h528v-68l-368 -645h-101l357 625h-416z" />
    <glyph glyph-name="eightsuperior" unicode="&#x2078;" horiz-adv-x="690" 
d="M436 1311h-174q-88 0 -88 -64v-114q0 -63 72 -64h203q72 0 71 64v114q0 64 -84 64zM438 1614h-182q-74 0 -74 -64v-94q0 -33 16 -48t62 -15h174q44 0 60 15t16 48v94q0 64 -72 64zM604 1561v-105q0 -70 -72 -106q33 -8 58 -39t24 -68v-119q0 -63 -42 -103t-113 -40h-219
q-76 0 -118 40t-42 103v119q0 37 26 69t56 40q-72 37 -72 106v103q0 67 42 105t116 38h201q71 0 113 -38t42 -105z" />
    <glyph glyph-name="ninesuperior" unicode="&#x2079;" horiz-adv-x="679" 
d="M242 1616q-34 0 -52 -18t-18 -46v-141q0 -27 20 -45t56 -18h84q45 0 110 30l58 27l-4 147q-2 63 -72 64h-182zM186 1184v-49q0 -27 18 -45t50 -19h174q70 0 70 64v206l-62 -41q-41 -35 -108 -34h-95q-71 0 -113 39t-42 100v156q0 67 42 105t118 38h198q74 0 116 -39
t42 -104v-435q0 -66 -42 -104t-114 -39h-188q-74 0 -116 39t-42 104v58h94z" />
    <glyph glyph-name="Euro" unicode="&#x20ac;" horiz-adv-x="1353" 
d="M1104 1044v142q0 100 -52 154t-147 55h-350q-96 -1 -147 -55t-52 -154v-203h576v-88h-576v-293h576v-88h-576v-225q0 -101 52 -155t147 -54h350q95 0 147 54t52 155v141h98v-141q0 -141 -77 -218t-220 -77h-350q-143 0 -220 77t-77 218v225h-172v88h172v293h-172v88h172
v203q0 141 78 219t219 78h350q141 0 219 -78t78 -219v-142h-98z" />
    <glyph glyph-name="trademark" unicode="&#x2122;" horiz-adv-x="1529" 
d="M1413 1475v-738h-65v652l-232 -537h-59l-236 537v-652h-65v738h80l249 -547l246 547h82zM627 1413h-219v-676h-72v676h-219v62h510v-62z" />
    <glyph glyph-name="oneeighth" unicode="&#x215b;" horiz-adv-x="1327" 
d="M944 1473l-762 -1473h-90l762 1473h90zM186 758v616l-133 -49v84l150 61h78v-712h-95zM1071 324h-174q-88 0 -88 -64v-115q0 -63 72 -63h202q72 0 72 63v115q0 64 -84 64zM1073 627h-182q-74 0 -74 -64v-94q-1 -33 15 -48t63 -15h174q45 0 60 15t16 48v94q0 64 -72 64z
M1249 137q0 -63 -41 -102t-114 -39h-220q-78 0 -118 39t-41 102v119q-1 37 25 69t57 40q-72 37 -72 106v102q0 66 42 105t116 39h200q74 0 116 -39t42 -105l-2 -104q0 -70 -72 -107q33 -8 58 -38t24 -68v-119z" />
    <glyph glyph-name="threeeighths" unicode="&#x215c;" horiz-adv-x="1595" 
d="M1214 1473l-761 -1473h-91l762 1473h90zM231 844h197q70 0 70 63v115q0 63 -84 63h-183v82h183q45 -1 60 15t15 49v94q0 63 -69 64h-178q-72 0 -72 -64v-53h-94v61q0 63 42 103t115 41h193q74 0 116 -40t42 -104v-102q0 -68 -70 -107q34 -12 56 -41t22 -65v-119
q0 -63 -42 -103t-116 -40h-209q-75 0 -117 40t-42 103v62h94l2 -54q2 -63 69 -63zM1339 324h-174q-88 0 -88 -64v-115q0 -63 72 -63h203q72 0 71 63v115q0 64 -84 64zM1341 627h-182q-74 0 -74 -64v-94q-1 -33 15 -48t63 -15h174q45 0 61 15t15 48v94q0 64 -72 64zM1518 256
v-119q0 -63 -41 -102t-115 -39h-219q-78 0 -119 39t-41 102v119q0 37 26 69t56 40q-72 37 -72 106v102q0 66 42 105t116 39h201q74 0 116 -39t41 -105l-2 -104q0 -70 -71 -107q34 -8 58 -38t24 -68z" />
    <glyph glyph-name="fiveeighths" unicode="&#x215d;" horiz-adv-x="1593" 
d="M1208 1470l-762 -1472h-90l762 1472h90zM575 1382h-399v-237l66 43q55 35 104 35h88q72 0 114 -40t42 -100v-186q0 -67 -42 -105t-114 -38h-198q-76 0 -118 39t-42 104v64h94v-56q0 -63 70 -63h184q70 0 70 63v168q0 29 -18 47t-54 19h-74q-63 0 -115 -29l-55 -29l-94 31
v361l491 -3v-88zM1337 324h-174q-88 0 -88 -64v-115q0 -63 72 -63h203q72 0 71 63v115q0 64 -84 64zM1339 627h-182q-74 0 -74 -64v-94q-1 -33 15 -48t63 -15h174q45 0 61 15t15 48v94q0 64 -72 64zM1516 256v-119q0 -63 -41 -102t-115 -39h-219q-78 0 -119 39t-41 102v119
q0 37 26 69t56 40q-72 37 -72 106v102q0 66 42 105t116 39h201q74 0 116 -39t41 -105l-2 -104q0 -70 -71 -107q34 -8 58 -38t24 -68z" />
    <glyph glyph-name="seveneighths" unicode="&#x215e;" horiz-adv-x="1392" 
d="M1010 1473l-762 -1473h-90l762 1473h90zM47 1384v89h528v-68l-368 -645h-101l357 624h-416zM1137 324h-174q-88 0 -89 -64v-115q0 -63 72 -63h203q72 0 72 63v115q0 64 -84 64zM1139 627h-183q-74 0 -73 -64v-94q0 -33 15 -48t63 -15h174q45 0 60 15t15 48v94
q1 64 -71 64zM1315 256v-119q0 -63 -41 -102t-115 -39h-219q-78 0 -119 39t-41 102v119q0 37 26 69t56 40q-72 37 -71 106v102q0 66 42 105t115 39h201q74 0 116 -39t42 -105l-2 -104q0 -70 -72 -107q33 -8 57 -38t25 -68z" />
    <glyph glyph-name="minus" unicode="&#x2212;" horiz-adv-x="1040" 
d="M141 797h756v-78h-756v78z" />
    <glyph glyph-name="infinity" unicode="&#x221e;" horiz-adv-x="1716" 
d="M1444 662v159q0 101 -52 155t-147 54h-153q-184 0 -185 -184v-209q0 -184 185 -184h153q95 1 147 55t52 154zM811 635v209q0 184 -186 184h-152q-96 0 -147 -54t-52 -155v-155q0 -201 199 -209l152 -4q186 -6 186 184zM1092 1118h153q141 0 219 -78t78 -219v-155
q0 -142 -78 -220t-219 -77h-153q-72 -1 -138 27t-94 73q-28 -45 -94 -73t-137 -27h-152q-141 -1 -219 77t-78 220v155q0 141 78 219t219 78h152q72 0 137 -28t94 -72q28 44 94 72t138 28z" />
    <glyph glyph-name="notequal" unicode="&#x2260;" horiz-adv-x="1040" 
d="M897 649v-90h-451l-118 -182h-111l119 182h-195v90h252l152 234h-404v90h463l109 168h110l-108 -168h182v-90h-242l-151 -234h393z" />
    <glyph glyph-name="fi" unicode="&#xfb01;" horiz-adv-x="1220" 
d="M1038 1104v-1104h-92v1104h92zM1049 1370h-113v152h113v-152zM352 1106h359v-78h-357v-1028h-90v1028h-201v78h203v131q0 135 76 211t211 76h158v-78l-156 -2q-92 0 -147 -58t-56 -149v-131z" />
    <glyph glyph-name="fl" unicode="&#xfb02;" horiz-adv-x="1218" 
d="M948 1522h86v-1522h-86v1522zM352 1106h359v-78h-357v-1028h-90v1028h-201v78h203v131q0 135 76 211t211 76h158v-78l-156 -2q-92 0 -147 -58t-56 -149v-131z" />
    <glyph glyph-name="Q.ss01" horiz-adv-x="1353" 
d="M1083 285v903q0 100 -52 154t-146 55h-414q-94 -1 -146 -55t-53 -154v-901q0 -101 52 -155t147 -54l414 -2q94 0 146 54t52 155zM471 1483h414q141 0 219 -78t78 -219v-897q0 -141 -77 -218t-220 -77h-158v-240h-98v240h-158q-143 0 -220 77t-77 218v897q0 141 78 219
t219 78z" />
    <glyph glyph-name="zero.subs" horiz-adv-x="702" 
d="M451 -76q33 0 51 18t18 46v420q0 27 -18 45t-51 18h-203q-34 0 -52 -18t-18 -45l-2 -420q0 -27 18 -45t54 -19h203zM461 -162h-217q-72 0 -115 37t-43 102v437q0 66 43 102t115 37h217q73 0 115 -37t42 -102v-437q0 -67 -42 -103t-115 -36z" />
    <glyph glyph-name="one.subs" horiz-adv-x="399" 
d="M186 -160v615l-133 -49v83l150 62h78v-711h-95z" />
    <glyph glyph-name="two.subs" horiz-adv-x="659" 
d="M489 401q0 68 -71 68h-174q-70 0 -70 -63l6 -60h-94v68q0 66 42 104t116 39h188q74 0 116 -39t42 -104v-111q0 -38 -10 -51q-10 -14 -14 -20q-3 -6 -5 -9q-2 -4 -16 -10l-19 -10q-2 0 -5 -2t-14 -7t-24 -12l-24 -12q-16 -8 -29 -12l-192 -78q-46 -20 -58 -28t-12 -29v-99
h424v-88h-518v197q0 39 9 52q13 19 17 27l33 21q2 0 7 3t14 7q10 4 22 11l25 12q20 10 26 12l191 78q41 12 56 24t15 33v88z" />
    <glyph glyph-name="three.subs" horiz-adv-x="667" 
d="M428 -74q70 0 70 64v112q0 63 -84 64h-183v82h183q45 0 60 15t15 48v95q0 63 -69 63h-178q-72 0 -72 -63v-54h-94v62q0 66 42 104t115 39h193q74 0 116 -39t42 -104v-103q0 -68 -70 -106q34 -12 56 -41t22 -66v-116q0 -64 -42 -104t-116 -40h-209q-75 0 -117 40t-42 104
v59h94l2 -51q2 -63 69 -64h197z" />
    <glyph glyph-name="four.subs" horiz-adv-x="720" 
d="M455 92v330l-291 -330h291zM664 6h-115v-164h-94v164h-394l-8 74l398 473h98v-461h115v-86z" />
    <glyph glyph-name="five.subs" horiz-adv-x="665" 
d="M575 463h-399v-238l66 43q55 35 104 35h88q72 0 114 -40t42 -99v-184q0 -66 -42 -105t-114 -39h-198q-76 0 -118 39t-42 105v61h94v-53q0 -63 70 -64h184q70 0 70 64v166q0 29 -18 47t-54 18h-74q-63 0 -115 -29l-55 -28l-94 31v360l491 -2v-88z" />
    <glyph glyph-name="six.subs" horiz-adv-x="679" 
d="M426 -80q72 0 72 64v145q0 63 -74 64h-84q-53 0 -111 -27l-55 -27l-2 -155q0 -27 18 -45t54 -19h182zM246 463q-70 0 -70 -64v-198l66 45q39 33 104 33h94q72 0 114 -39t42 -101v-164q0 -67 -42 -105t-114 -38h-198q-76 0 -118 39t-42 104v433q0 63 42 103t118 40h188
q74 0 116 -40t42 -103v-58h-94l-5 49q-6 63 -69 64h-174z" />
    <glyph glyph-name="seven.subs" horiz-adv-x="628" 
d="M47 465v88h528v-68l-368 -643h-101l357 623h-416z" />
    <glyph glyph-name="eight.subs" horiz-adv-x="690" 
d="M436 164h-174q-88 0 -88 -64v-112q0 -63 72 -64h203q72 0 71 64v112q0 64 -84 64zM438 467h-182q-74 0 -74 -64v-94q0 -33 16 -48t62 -15h174q44 0 60 15t16 48v94q0 64 -72 64zM604 414v-105q0 -70 -72 -106q33 -8 58 -39t24 -68v-116q0 -66 -42 -105t-113 -39h-219
q-76 0 -118 39t-42 105v116q0 37 26 69t56 40q-72 37 -72 106v103q0 66 42 104t116 39h201q71 -1 113 -39t42 -104z" />
    <glyph glyph-name="nine.subs" horiz-adv-x="679" 
d="M424 469h-182q-34 0 -52 -18t-18 -45v-142q0 -27 20 -45t56 -18h84q45 0 110 30l58 27l-4 148q-2 63 -72 63zM186 37v-47q0 -27 18 -45t50 -19h174q70 0 70 64v205l-62 -41q-41 -35 -108 -35h-95q-71 0 -113 39t-42 100v156q0 66 42 104t118 39h198q74 0 116 -39t42 -104
v-432q0 -64 -42 -104t-114 -40h-188q-74 0 -116 40t-42 104v55h94z" />
    <glyph glyph-name="zero.tf" horiz-adv-x="1308" 
d="M268 1186v-897q0 -101 52 -155t147 -54h375q96 0 147 54t51 155v897q0 100 -51 154t-147 55h-375q-95 -1 -147 -55t-52 -154zM842 -6h-375q-143 0 -220 77t-77 218v897q0 141 78 219t219 78h375q141 0 219 -78t78 -219v-897q0 -141 -77 -218t-220 -77z" />
    <glyph glyph-name="one.tf" horiz-adv-x="1308" 
d="M1098 0h-867v88h398v1296l-398 -100v88l396 103h100v-1387h371v-88z" />
    <glyph glyph-name="two.tf" horiz-adv-x="1308" 
d="M209 1063v125q0 145 76 221t221 76h319q145 0 221 -76t76 -221v-199q0 -102 -61 -158l-31 -26q-17 -17 -41 -29l-30 -15q-5 -3 -10 -5t-7 -4l-559 -289q-72 -45 -84 -77t-12 -64v-236h837v-86h-936v322q0 64 12 87l14 29q11 22 32 39l30 27q6 6 43 26l601 314
q72 45 84 77t12 62v199q0 98 -49 153t-146 56h-319q-96 1 -146 -57t-49 -152l2 -119h-100z" />
    <glyph glyph-name="three.tf" horiz-adv-x="1308" 
d="M461 76h366q96 0 146 55q49 55 49 154v254q0 174 -201 174h-377v88h377q109 0 148 42t39 136v209q0 98 -50 153t-145 56h-334q-96 1 -145 -55t-49 -154v-98h-99v98q0 145 76 221t221 76h334q145 0 221 -76t76 -221v-207q0 -80 -41 -136t-96 -85q57 -14 106 -76t50 -145
v-252q0 -145 -75 -220t-222 -75h-367q-147 0 -222 75t-75 220v98h98l-4 -100q-2 -93 48 -151t147 -58z" />
    <glyph glyph-name="four.tf" horiz-adv-x="1308" 
d="M872 481v897l-667 -897h667zM1192 393h-217v-393h-103v393h-784v80l746 1002h141v-994h217v-88z" />
    <glyph glyph-name="five.tf" horiz-adv-x="1308" 
d="M850 952q135 0 209 -74t74 -208v-383q0 -145 -75 -220t-222 -75h-328q-147 0 -222 75t-75 220v108h98v-108q0 -97 49 -153t146 -56h327q96 0 146 55q49 55 49 154v383q0 197 -186 196h-174q-106 0 -217 -65l-134 -80l-98 29v725h893v-89l-784 -2v-596l133 97
q94 68 217 67h174z" />
    <glyph glyph-name="six.tf" horiz-adv-x="1308" 
d="M502 78h327q96 0 146 55q49 55 49 154v329q0 98 -49 154t-146 55h-174q-111 0 -217 -65l-133 -80l2 -393q0 -97 49 -153t146 -56zM1128 287q0 -295 -297 -295h-327q-147 0 -222 75t-75 220v901q0 145 76 221t221 76h305q145 0 221 -76t76 -221v-109h-98l-4 111
q-8 207 -195 209h-305q-96 1 -146 -55t-49 -154v-438l133 96q90 66 215 65h174q145 0 222 -75q76 -76 75 -222v-329z" />
    <glyph glyph-name="seven.tf" horiz-adv-x="1308" 
d="M156 1386v89h985v-56l-660 -1419h-102l647 1386h-870z" />
    <glyph glyph-name="eight.tf" horiz-adv-x="1308" 
d="M268 530v-245q0 -97 49 -153t146 -56h385q96 0 145 55t49 154v245q0 88 -46 134t-158 47l-365 -4q-115 0 -160 -45t-45 -132zM827 1395h-352q-96 1 -145 -55t-49 -154v-215q0 -94 36 -135q37 -39 148 -39h373q112 0 148 40t36 134v215q0 98 -50 154t-145 55zM1141 532
v-245q0 -145 -75 -220t-222 -75h-385q-147 0 -222 75t-75 220v245q0 84 49 146t106 76q-137 70 -137 221v213q0 145 76 221t221 76h352q145 0 222 -77t75 -220l-4 -213q-4 -154 -137 -221q57 -14 107 -76t49 -146z" />
    <glyph glyph-name="nine.tf" horiz-adv-x="1308" 
d="M481 1397q-96 1 -145 -55t-49 -154v-301q0 -97 49 -153t145 -56h172q109 0 217 65l136 80l-2 365q0 98 -50 153t-145 56h-328zM502 76h305q96 0 145 55t49 154v469l-135 -97q-94 -68 -217 -67h-172q-145 0 -221 76t-76 221v301q0 145 76 221t221 76h328q145 0 221 -76
t76 -221v-901q0 -145 -75 -220t-222 -75h-305q-147 0 -222 75t-75 220v108h98l6 -110q6 -105 52 -157t143 -52z" />
    <glyph glyph-name="zero.dnom" horiz-adv-x="702" 
d="M248 82h203q33 0 51 18t18 45v422q0 27 -18 45t-51 19h-203q-34 -1 -52 -19t-18 -45l-2 -422q0 -27 18 -45t54 -18zM461 -2h-217q-74 0 -116 36t-42 101v438q0 66 43 103t115 37h217q73 0 115 -37t42 -103v-438q0 -65 -42 -101t-115 -36z" />
    <glyph glyph-name="one.dnom" horiz-adv-x="399" 
d="M186 0v616l-133 -49v84l150 62h78v-713h-95z" />
    <glyph glyph-name="two.dnom" horiz-adv-x="659" 
d="M489 561q0 66 -71 68h-174q-70 -1 -70 -64l6 -59h-94v67q0 66 42 105t116 39h188q74 0 116 -39t42 -105v-110q0 -37 -10 -51q-10 -15 -14 -20q-3 -5 -5 -9t-16 -10l-19 -11q-2 0 -5 -2t-14 -7t-24 -11l-24 -12q-16 -8 -29 -13l-192 -77q-46 -20 -58 -28t-12 -30v-100h424
v-86h-518v197q0 39 9 52q13 18 15 23t20 15q17 10 21 13t15 7q10 4 22 10l25 13q20 10 26 12l191 78q41 12 56 24t15 33v88z" />
    <glyph glyph-name="three.dnom" horiz-adv-x="667" 
d="M231 84h197q70 0 70 63v115q0 63 -84 64h-183v82h183q45 0 60 15t15 48v94q0 63 -69 64h-178q-72 0 -72 -64v-53h-94v61q0 66 42 105t115 39h193q74 0 116 -39t42 -105v-102q0 -68 -70 -106q34 -12 56 -41t22 -66v-119q0 -65 -41 -103t-117 -38h-209q-79 0 -119 38
t-40 103v62h94l2 -54q2 -63 69 -63z" />
    <glyph glyph-name="four.dnom" horiz-adv-x="720" 
d="M455 252v330l-291 -330h291zM664 166h-115v-166h-94v166h-394l-8 74l398 473h98v-461h115v-86z" />
    <glyph glyph-name="five.dnom" horiz-adv-x="665" 
d="M575 623h-399v-238l66 43q55 35 104 35h88q72 0 114 -39t42 -100v-187q0 -63 -41 -102t-115 -39h-198q-78 0 -119 39t-41 102v64h94v-56q0 -63 70 -63h184q70 0 70 63v168q0 29 -18 47t-54 19h-74q-63 0 -115 -29l-55 -28l-94 30v361l491 -2v-88z" />
    <glyph glyph-name="six.dnom" horiz-adv-x="679" 
d="M244 84h182q72 0 72 63v148q0 63 -74 63h-84q-53 0 -111 -26l-55 -27l-2 -158q0 -27 18 -45t54 -18zM246 629q-70 0 -70 -64v-198l66 45q39 33 104 32h94q72 0 114 -40t42 -99v-166q0 -65 -41 -103t-115 -38h-198q-78 0 -119 38t-41 103v434q0 66 42 105t118 39h188
q74 0 116 -39t42 -105v-57h-94l-5 49q-6 63 -69 64h-174z" />
    <glyph glyph-name="seven.dnom" horiz-adv-x="628" 
d="M47 625v88h528v-68l-368 -645h-101l357 625h-416z" />
    <glyph glyph-name="eight.dnom" horiz-adv-x="690" 
d="M436 324h-174q-88 0 -88 -64v-115q0 -63 72 -63h203q72 0 71 63v115q0 64 -84 64zM438 627h-182q-74 0 -74 -64v-94q0 -33 16 -48t62 -15h174q44 0 60 15t16 48v94q0 64 -72 64zM604 573v-104q0 -70 -72 -107q33 -8 58 -38t24 -68v-119q0 -63 -41 -102t-114 -39h-219
q-78 0 -119 39t-41 102v119q0 37 26 69t56 40q-72 37 -72 106v102q0 66 42 105t116 39h201q71 0 113 -39t42 -105z" />
    <glyph glyph-name="nine.dnom" horiz-adv-x="679" 
d="M242 629q-34 -1 -52 -19t-18 -45v-141q0 -27 20 -45t56 -19h84q45 0 110 31l58 27l-4 147q-2 63 -72 64h-182zM186 197v-50q0 -27 18 -45t50 -18h174q70 0 70 63v207l-62 -41q-41 -35 -108 -34h-95q-71 1 -113 39t-42 100v155q0 66 42 105t118 39h198q74 0 116 -39
t42 -105v-434q0 -65 -41 -103t-115 -38h-188q-76 0 -117 38t-41 103v58h94z" />
    <glyph glyph-name="zero.numr" horiz-adv-x="702" 
d="M248 844h203q33 0 51 18t18 45v422q0 27 -18 45t-51 19h-203q-34 -1 -52 -19t-18 -45l-2 -422q0 -27 18 -45t54 -18zM461 758h-217q-72 0 -115 37t-43 102v438q0 66 43 103t115 37h217q73 0 115 -37t42 -103v-438q0 -67 -42 -103t-115 -36z" />
    <glyph glyph-name="one.numr" horiz-adv-x="399" 
d="M186 760v616l-133 -49v84l150 62h78v-713h-95z" />
    <glyph glyph-name="two.numr" horiz-adv-x="659" 
d="M489 1323q0 66 -71 68h-174q-70 -1 -70 -64l6 -59h-94v67q0 66 42 105t116 39h188q74 0 116 -39t42 -105v-110q0 -37 -10 -51q-10 -15 -14 -20q-3 -5 -5 -9t-16 -10l-19 -11q-2 0 -5 -2t-14 -7t-24 -11l-24 -12q-16 -8 -29 -13l-192 -78q-46 -20 -58 -28t-12 -29v-100
h424v-88h-518v198q0 36 9 51l12 20q3 5 5 9t17 10l16 11q2 0 7 3t14 7q15 6 73 35l191 78q41 12 56 24t15 33v88z" />
    <glyph glyph-name="three.numr" horiz-adv-x="667" 
d="M231 846h197q70 0 70 63v115q0 63 -84 63h-183v82h183q45 -1 60 15t15 49v94q0 63 -69 64h-178q-72 0 -72 -64v-53h-94v61q0 66 42 105t115 39h193q74 0 116 -39t42 -105v-102q0 -68 -70 -107q34 -12 56 -41t22 -65v-119q0 -67 -42 -105t-116 -38h-209q-75 0 -117 39
t-42 104v62h94l2 -54q2 -63 69 -63z" />
    <glyph glyph-name="four.numr" horiz-adv-x="720" 
d="M455 1014v329l-291 -329h291zM664 928h-115v-166h-94v166h-394l-8 73l398 474h98v-461h115v-86z" />
    <glyph glyph-name="five.numr" horiz-adv-x="665" 
d="M575 1384h-399v-237l66 43q55 35 104 35h88q72 0 114 -39t42 -101v-186q0 -63 -42 -103t-114 -40h-198q-76 0 -118 40t-42 103v64h94v-56q0 -63 70 -63h184q70 0 70 63v168q0 29 -18 47t-54 19h-74q-63 0 -115 -29l-55 -29l-94 31v361l491 -2v-89z" />
    <glyph glyph-name="six.numr" horiz-adv-x="679" 
d="M244 840h182q72 0 72 63v148q0 63 -74 63h-84q-53 0 -111 -27l-55 -26l-2 -158q0 -27 18 -45t54 -18zM420 1384h-174q-70 0 -70 -63v-199l66 45q39 33 104 33h94q72 0 114 -39t42 -100v-166q0 -63 -42 -103t-114 -40h-198q-76 0 -118 40t-42 103v434q0 63 42 103t118 41
h188q74 0 116 -40t42 -104v-57h-94l-5 49q-6 63 -69 63z" />
    <glyph glyph-name="seven.numr" horiz-adv-x="628" 
d="M47 1386v89h528v-68l-368 -645h-101l357 624h-416z" />
    <glyph glyph-name="eight.numr" horiz-adv-x="690" 
d="M436 1085h-174q-88 0 -88 -63v-115q0 -63 72 -63h203q72 0 71 63v115q0 63 -84 63zM438 1389h-182q-74 0 -74 -64v-94q0 -33 16 -48t62 -16h174q44 -1 60 15t16 49v94q0 64 -72 64zM604 1335v-104q0 -70 -72 -107q33 -8 58 -39t24 -67v-119q0 -63 -42 -103t-113 -40h-219
q-76 0 -118 40t-42 103v119q0 36 26 68t56 40q-72 37 -72 107v102q0 66 42 105t116 39h201q71 0 113 -39t42 -105z" />
    <glyph glyph-name="nine.numr" horiz-adv-x="679" 
d="M242 1391q-34 -1 -52 -19t-18 -45v-141q0 -27 20 -45t56 -19h84q45 0 110 31l58 27l-4 147q-2 63 -72 64h-182zM186 958v-49q0 -27 18 -45t50 -18h174q70 0 70 63v207l-62 -41q-41 -35 -108 -35h-95q-71 0 -113 39t-42 101v155q0 66 42 105t118 39h198q74 0 116 -39
t42 -105v-434q0 -67 -42 -105t-114 -38h-188q-74 0 -116 39t-42 104v57h94z" />
    <glyph glyph-name="numbersign.tf" horiz-adv-x="1308" 
d="M881 958h-342l-113 -417h344zM1102 541v-76h-260l-125 -465h-90l123 465h-342l-125 -465h-90l122 465h-249v76h270l110 417h-239v76h260l117 441h92l-117 -441h342l117 441h92l-117 -441h250v-76h-270l-113 -417h242z" />
    <glyph glyph-name="florin.tf" horiz-adv-x="1308" 
d="M1063 1386h-184q-95 0 -147 -54t-52 -154v-291h362v-86h-362v-514q0 -131 -78 -209t-209 -78h-147v88h147q188 0 189 199v514h-322v86h322v291q0 141 77 219q78 78 220 78h184v-89z" />
    <glyph glyph-name="cent.tf" horiz-adv-x="1308" 
d="M305 981v-479q0 -100 52 -154t147 -55h117v895l-117 2q-92 2 -146 -53t-53 -156zM1020 944v35q0 95 -55 153t-140 58h-125v-895h121q95 0 147 54t52 155v39h98v-39q0 -133 -82 -215t-215 -82h-123v-207h-77v207h-117q-133 0 -215 82t-82 215v479q0 133 82 215t215 82h117
v195h77v-195h123q133 0 215 -82t82 -215v-39h-98z" />
    <glyph glyph-name="currency.tf" horiz-adv-x="1308" 
d="M532 389h240q96 0 148 54t51 155v307q0 97 -52 149t-147 52h-237q-197 0 -197 -201v-307q0 -98 49 -154t145 -55zM770 301h-238q-106 0 -178 47l-153 -153l-66 65l152 152q-49 74 -49 186v307q0 111 47 182l-150 150l66 66l149 -150q72 49 185 49h237q113 0 186 -49
l150 150l66 -66l-152 -152q47 -72 47 -178l-2 -309q0 -115 -49 -184l153 -154l-65 -65l-154 153q-72 -47 -182 -47z" />
    <glyph glyph-name="dollar.tf" horiz-adv-x="1308" 
d="M1036 287v168q0 141 -96 176q-16 6 -74 20l-157 39v-612h133q96 0 145 56t49 153zM285 1184v-137q0 -141 106 -175q23 -6 68 -18l155 -41v582l-131 -2q-94 -1 -146 -55t-52 -154zM1133 461v-174q0 -143 -76 -219t-217 -76h-131v-174h-97v174h-133q-143 0 -220 77t-77 218
v131h101v-131q0 -97 49 -153t145 -56h137v635l-133 35q-90 24 -133 40t-85 50q-77 63 -79 206v142q0 141 78 219t219 78h129v174h97v-174h110q141 0 219 -78t78 -219v-109h-100v109q0 98 -49 153t-146 56h-112v-604l133 -33q158 -40 226 -98t67 -199z" />
    <glyph glyph-name="Euro.tf" horiz-adv-x="1308" 
d="M1104 1044v142q0 100 -52 154t-147 55h-350q-96 -1 -147 -55t-52 -154v-203h576v-88h-576v-293h576v-88h-576v-225q0 -101 52 -155t147 -54h350q95 0 147 54t52 155v141h98v-141q0 -141 -77 -218t-220 -77h-350q-143 0 -220 77t-77 218v225h-172v88h172v293h-172v88h172
v203q0 141 78 219t219 78h350q141 0 219 -78t78 -219v-142h-98z" />
    <glyph glyph-name="sterling.tf" horiz-adv-x="1308" 
d="M1163 88v-88h-1046v88h110q57 0 58 57v525h-168v88h168v428q0 141 77 219q78 78 220 78h276q141 0 219 -78t78 -219v-144h-98v144q0 100 -51 154t-148 55h-276q-94 -1 -146 -55t-53 -154v-428h491v-88h-491v-582h780z" />
    <glyph glyph-name="yen.tf" horiz-adv-x="1308" 
d="M1061 655v-88h-359v-147h359v-88h-359v-332h-98v332h-356v88h356v147h-356v88h313l-485 820h117l460 -797l461 797h117l-486 -820h316z" />
    </font>
</defs>
</svg>
